Поиск

(Latin Jazz, World Fusion) Bill O’Connell Latin Jazz Project - Black Sand - 2001, APE (image+.cue), lossless

(Latin Jazz, World Fusion) Bill O’Connell Latin Jazz Project - Black Sand - 2001, APE (image+.cue), lossless
Треклист:
Bill O’Connell Latin Jazz Project - Black Sand
Жанр: Latin Jazz, World Fusion
Год выпуска диска: 2001
Производитель диска: Random Chance Rec.
Аудио кодек: APE
Тип рипа: image+.cue
Битрейт аудио: lossless
Продолжительность: 67:01
Источник: hqshare, dreadbull
Трэклист:
01. Latin Jazz /O'Connell/ 7:23
02. Black Sand /O'Connell/ 5:32
03. Blue Brazil /O'Connell/ 4:14
04. Obakoso /O'Connell, Cardona/ 3:06
05. Alhamba /O'Connell/ 4:21
06. Kidz /O'Connell/ 5:18
07. Fire Dance /O'Connell/ 6:14
08. Gentle Rumba /O'Connell/ 9:05
09. Son of a Montuno /O'Connell/ 5:07
10. Trepidation /O'Connell/ 6:21
11. Iguana /O'Connell/ 4:41
12. It's All Right With Me /Porter/ 5:32.
Состав:
Bill O'Connell - piano;
Andy Gonzalez - bass (#1,4,5,8,9,11,12);
Charles Fambrough - bass (2,3,6,10);
Steve Berrios - drums (#1-3,5,6,8-12), chekere (#1,3,7,8,11);
Joe Ford - soprano (#1,8,10) & alto (#2) sax;
Randy Brecker - trumpet (#2,6):
Dave Valentin - flute (#3);
Milton Cardona - congas (#1,3,4,11,12), chekere & vocals (#4);
Carole Robinson - vocals (#4);
Sergio Cardona - percussion (#4).
 
EAC Log
EAC extraction logfile from 8. June 2010, 17:05 for CD
Bill O'Connell Latin Jazz Project / Black Sand
Used drive : PLEXTOR DVDR PX-750A Adapter: 0 ID: 1
Read mode : Secure with NO C2, accurate stream, disable cache
Read offset correction : 102
Overread into Lead-In and Lead-Out : No
Used output format : Internal WAV Routines
44.100 Hz; 16 Bit; Stereo
Other options :
Fill up missing offset samples with silence : Yes
Delete leading and trailing silent blocks : No
Installed external ASPI interface
Range status and errors
Selected range
Filename E:\Donkey Files\Bill O'Connell Latin Jazz Project - Black Sand (2001, Random Chance) [eac-ape-scans] byDrBull\CDImage.wav
Peak level 97.7 %
Range quality 99.9 %
CRC CEE2945A
Copy OK
No errors occured
End of status report
 
CUE
PERFORMER "Bill O'Connell Latin Jazz Project"
TITLE "Black Sand"
FILE "CDImage.wav" WAVE
TRACK 01 AUDIO
TITLE "Latin Jazz"
PERFORMER "Bill O'Connell Latin Jazz Project"
INDEX 01 00:00:00
TRACK 02 AUDIO
TITLE "Black Sand"
PERFORMER "Bill O'Connell Latin Jazz Project"
INDEX 00 07:22:51
INDEX 01 07:23:51
TRACK 03 AUDIO
TITLE "Blue Brazil"
PERFORMER "Bill O'Connell Latin Jazz Project"
INDEX 00 12:54:66
INDEX 01 12:56:40
TRACK 04 AUDIO
TITLE "Obakoso"
PERFORMER "Bill O'Connell Latin Jazz Project"
INDEX 00 17:09:07
INDEX 01 17:10:45
TRACK 05 AUDIO
TITLE "Alhamba"
PERFORMER "Bill O'Connell Latin Jazz Project"
INDEX 00 20:16:44
INDEX 01 20:17:42
TRACK 06 AUDIO
TITLE "Kidz"
PERFORMER "Bill O'Connell Latin Jazz Project"
INDEX 00 24:37:61
INDEX 01 24:39:24
TRACK 07 AUDIO
TITLE "Fire Dance"
PERFORMER "Bill O'Connell Latin Jazz Project"
INDEX 00 29:57:10
INDEX 01 29:58:16
TRACK 08 AUDIO
TITLE "Gentle Rumba"
PERFORMER "Bill O'Connell Latin Jazz Project"
INDEX 00 36:12:02
INDEX 01 36:13:02
TRACK 09 AUDIO
TITLE "Son of a Montuno"
PERFORMER "Bill O'Connell Latin Jazz Project"
INDEX 00 45:17:57
INDEX 01 45:18:02
TRACK 10 AUDIO
TITLE "Trepidation"
PERFORMER "Bill O'Connell Latin Jazz Project"
INDEX 00 50:23:37
INDEX 01 50:25:10
TRACK 11 AUDIO
TITLE "Iguana"
PERFORMER "Bill O'Connell Latin Jazz Project"
INDEX 00 56:46:03
INDEX 01 56:46:22
TRACK 12 AUDIO
TITLE "It's Alright With Me"
PERFORMER "Bill O'Connell Latin Jazz Project"
INDEX 00 61:26:15
INDEX 01 61:27:72
16:20
274
Нет комментариев. Ваш будет первым!