Поиск

(Latin Jazz, World Fusion, Afro-Cuban Jazz) Willie Bobo - Juicy (1967) - 1998, FLAC (image+.cue), lossless

Треклист:
Willie Bobo - Juicy (1967)
Жанр: Latin Jazz, World Fusion, Afro-Cuban Jazz
Страна-производитель диска: USA
Год издания диска: 1998
Издатель (лейбл): Verve
Номер по каталогу: 519 857-2
Аудио кодек: FLAC (*.flac)
Тип рипа: image+.cue
Битрейт аудио: lossless
Продолжительность: 47:40
Наличие сканов в содержимом раздачи: yes
Источник (релизер): jbc (thanks hungaropitecus)

Треклист:
1. Knock On Wood
2. Mating Call
3. Mercy, Mercy, Mercy
4. Felicidad
5. La Descarga Del Bobo
6. Juicy
7. Ain't To Proud To Beg
8. Music To Watch Girls By
9. Dreams
10. Dis-Advantages
11. Roots
12. Shing-A-Ling Baby
13. Juicy (alt. take)
14. Music To Watch Girls By (alt. take)
15. Dis-Advantages (alt. take)
16. Shing-A-Ling Baby (alt. take)
Исполнители:
Willie Bobo - timbales, vocals
Bobby Brown - saxophone (alto and tenor)
Melvin Lastie - cornet
Sonny Henry - guitar
& others unknown - bass, drums, conga, guiro.
 
Лог EAC
Exact Audio Copy V0.99 prebeta 4 from 23. January 2008
EAC extraction logfile from 25. August 2010, 16:27
Willie Bobo / Juicy
Used drive : _NEC DVD_RW ND-3500AG Adapter: 0 ID: 0
Read mode : Secure
Utilize accurate stream : Yes
Defeat audio cache : Yes
Make use of C2 pointers : No
Read offset correction : 48
Overread into Lead-In and Lead-Out : No
Fill up missing offset samples with silence : Yes
Delete leading and trailing silent blocks : No
Null samples used in CRC calculations : Yes
Used interface : Native Win32 interface for Win NT & 2000
Used output format : User Defined Encoder
Selected bitrate : 768 kBit/s
Quality : High
Add ID3 tag : No
Command line compressor : C:\Program Files\Exact Audio Copy\FLAC\FLAC.EXE
Additional command line options : -6 -V -T "ARTIST=%a" -T "TITLE=%t" -T "ALBUM=%g" -T "DATE=%y" -T "TRACKNUMBER=%n" -T "GENRE=%m" -T "COMMENT=%e" %s -o %d
TOC of the extracted CD
Track | Start | Length | Start sector | End sector
---------------------------------------------------------
1 | 0:00.00 | 2:43.45 | 0 | 12269
2 | 2:43.45 | 3:08.12 | 12270 | 26381
3 | 5:51.57 | 2:37.28 | 26382 | 38184
4 | 8:29.10 | 3:20.22 | 38185 | 53206
5 | 11:49.32 | 5:41.10 | 53207 | 78791
6 | 17:30.42 | 2:29.65 | 78792 | 90031
7 | 20:00.32 | 2:45.53 | 90032 | 102459
8 | 22:46.10 | 2:21.72 | 102460 | 113106
9 | 25:08.07 | 3:26.38 | 113107 | 128594
10 | 28:34.45 | 2:05.00 | 128595 | 137969
11 | 30:39.45 | 3:16.25 | 137970 | 152694
12 | 33:55.70 | 3:11.32 | 152695 | 167051
13 | 37:07.27 | 2:23.20 | 167052 | 177796
14 | 39:30.47 | 2:28.63 | 177797 | 188959
15 | 41:59.35 | 2:05.12 | 188960 | 198346
16 | 44:04.47 | 3:36.15 | 198347 | 214561
Range status and errors
Selected range
Filename J:\eMusic\Rip\Willie Bobo - Juicy.wav
Peak level 100.0 %
Range quality 99.9 %
Test CRC CB18DCE9
Copy CRC CB18DCE9
Copy OK
No errors occurred
AccurateRip summary
Track 1 accurately ripped (confidence 4) [ABCFECBF]
Track 2 accurately ripped (confidence 4) [09FB98EB]
Track 3 accurately ripped (confidence 4) [854E9719]
Track 4 accurately ripped (confidence 4) [05965026]
Track 5 accurately ripped (confidence 4) [19D3F1B6]
Track 6 accurately ripped (confidence 4) [61CE1D07]
Track 7 accurately ripped (confidence 4) [287DEF4F]
Track 8 accurately ripped (confidence 4) [87378278]
Track 9 accurately ripped (confidence 4) [DD8C1D21]
Track 10 accurately ripped (confidence 4) [B83DED3B]
Track 11 accurately ripped (confidence 4) [850B0CEE]
Track 12 accurately ripped (confidence 4) [7044F2A2]
Track 13 accurately ripped (confidence 4) [95A17B5C]
Track 14 accurately ripped (confidence 4) [338F2AEA]
Track 15 accurately ripped (confidence 4) [A26A6EF8]
Track 16 accurately ripped (confidence 4) [CA0D5644]
All tracks accurately ripped
End of status report
О музыканте "Инфо" здесь
18:16
273
Нет комментариев. Ваш будет первым!