Поиск

(Latin Jazz, World Fusion, Afro-Cuban Jazz) Montego Joe - Arriba con Montego Joe - 1965, FLAC (image+.cue), lossless

Треклист:
Montego Joe - ¡Arriba! con Montego Joe
Жанр: Latin Jazz, World Fusion, Afro-Cuban Jazz
Страна-производитель диска: США
Год издания: 1994
Издатель (лейбл): Prestige/Fantasy
Номер по каталогу: PRCD-24139-2
Аудиокодек: FLAC (*.flac)
Тип рипа: image+.cue
Битрейт аудио: lossless
Продолжительность: 78:46
Источник (релизер): dreadbull (hqshare)
Наличие сканов в содержимом раздачи: да
Треклист:
01. Fat Man /Stevenson/ 4:02
02. The Jinx /Ashby/ 6:17
03. Too Much Sake /Silver/ 7:43
04. Maracatu /Goines, Goines, Sanders/ 5:35
05. Dakar /Goines, Goines, Sanders/ 7:12
06. Calling for the Angels in the Water /Goines, Goines, Sanders/ 8:58
07. Same Old Same Old /Kellaway/ 2:35
08. Haitian Lady /Ousley/ 3:31
09. Capricious /Taylor/ 2:32
10. Happy Joe /Stevenson/ 4:37
11. No Tears /Holloway, Shakesnider, Smith/ 2:37
12. Ouch /White/ 2:19
13. Give It Up /Perkinson/ 2:49
14. Ewe /Sanders/ 4:57
15. Bata Blues /Sanders/ 5:57
16. Concumba /Sanders/ 3:52
17. Lexington Avenue Line /Kahle/ 3:06
 
Лог создания рипа
EAC extraction logfile from 10. May 2009, 15:28 for CD
Montego Joe / !Arriba! con Montego Joe
Used drive : PLEXTOR DVDR PX-750A Adapter: 0 ID: 1
Read mode : Secure with NO C2, accurate stream, disable cache
Read offset correction : 102
Overread into Lead-In and Lead-Out : No
Used output format : Internal WAV Routines
44.100 Hz; 16 Bit; Stereo
Other options :
Fill up missing offset samples with silence : Yes
Delete leading and trailing silent blocks : No
Installed external ASPI interface
Range status and errors
Selected range
Filename E:\Donkey Files\Arriba! con Montego Joe (1964-65, Prestige 1994) [eac-ape-scans]\CDImage.wav
Peak level 100.0 %
Range quality 100.0 %
CRC 59324C9C
Copy OK
No errors occured
End of status report
 
Содержание индексной карты (.CUE)
PERFORMER "Montego Joe"
TITLE "Arriba! con Montego Joe"
FILE "Montego Joe - Arriba! con Montego Joe.wav" WAVE
TRACK 01 AUDIO
TITLE "Fat Man"
PERFORMER "Montego Joe"
INDEX 01 00:00:00
TRACK 02 AUDIO
TITLE "The Jinx"
PERFORMER "Montego Joe"
INDEX 00 03:59:10
INDEX 01 04:02:05
TRACK 03 AUDIO
TITLE "Too Much Sake"
PERFORMER "Montego Joe"
INDEX 00 10:15:62
INDEX 01 10:19:42
TRACK 04 AUDIO
TITLE "Maracatu"
PERFORMER "Montego Joe"
INDEX 00 17:59:52
INDEX 01 18:02:72
TRACK 05 AUDIO
TITLE "Dakar"
PERFORMER "Montego Joe"
INDEX 00 23:34:50
INDEX 01 23:37:72
TRACK 06 AUDIO
TITLE "Calling for the Angels in the Water"
PERFORMER "Montego Joe"
INDEX 00 30:46:55
INDEX 01 30:50:27
TRACK 07 AUDIO
TITLE "Same Old Same Old"
PERFORMER "Montego Joe"
INDEX 00 39:46:55
INDEX 01 39:49:10
TRACK 08 AUDIO
TITLE "Haitian Lady"
PERFORMER "Montego Joe"
INDEX 00 42:20:67
INDEX 01 42:24:45
TRACK 09 AUDIO
TITLE "Capricious"
PERFORMER "Montego Joe"
INDEX 00 45:51:65
INDEX 01 45:55:70
TRACK 10 AUDIO
TITLE "Happy Joe"
PERFORMER "Montego Joe"
INDEX 00 48:25:12
INDEX 01 48:28:30
TRACK 11 AUDIO
TITLE "No Tears"
PERFORMER "Montego Joe"
INDEX 00 53:02:12
INDEX 01 53:06:02
TRACK 12 AUDIO
TITLE "Ouch"
PERFORMER "Montego Joe"
INDEX 00 55:41:12
INDEX 01 55:43:47
TRACK 13 AUDIO
TITLE "Give It Up"
PERFORMER "Montego Joe"
INDEX 00 58:00:12
INDEX 01 58:03:12
TRACK 14 AUDIO
TITLE "Ewe"
PERFORMER "Montego Joe"
INDEX 00 60:49:57
INDEX 01 60:52:67
TRACK 15 AUDIO
TITLE "Bata Blues"
PERFORMER "Montego Joe"
INDEX 00 65:48:30
INDEX 01 65:50:45
TRACK 16 AUDIO
TITLE "Concumba"
PERFORMER "Montego Joe"
INDEX 00 71:45:02
INDEX 01 71:48:07
TRACK 17 AUDIO
TITLE "Lexington Avenue Line"
PERFORMER "Montego Joe"
INDEX 00 75:37:10
INDEX 01 75:40:32
 
Review by Stewart Mason
Everything about this album, from the artist's name and album title to the rather cheesy cover photo of a smiling tuxedo-clad man on a beach surrounded by congas, suggests to a cynical eye that Arriba! Con Montego Joe is kitschy exotica on par with Martin Denny or Les Baxter. And while that style of music has its fizzy charms, it turns out that Arriba! Con Montego Joe is something much meatier. Collecting the entirety of the two albums Montego Joe (born Joseph Sanders) made for Prestige (1964's Arriba! Con Montego Joe and 1965's Wild and Warm), these 17 tracks are a uniformly excellent blend of swinging, groove-oriented Latin percussion against soulful hard bop horns and piano (played by some kid with the unlikely name of Chick Corea). This unlikely combination works a treat, especially on the tracks that take a while to unfold, like the sinuous "Bata Blues," which marries some excellent soloing by Corea and tenor saxophonist Al Gibbons to the pitter-pat of the African tuned drums of the title. There is little that's groundbreaking on these albums, but Miles Davis would attract quite a lot of attention several years later for his cross-cultural experiments in a very similar style, and this is an intriguing early indication of that direction.
 
Состав
Montego Joe - conga drums;
Leonard Goines - trumpet;
Al Gibbons - tenor sax & flute (#1-17), conductor & arranger (#7-17);
Milford Graves - drums, timbales;
on #1-6 (May 15, 1964), "¡Arriba! con Montego Joe":
Chick Corea - piano;
Eddie Gomez - bass;
Robert Crowder - percussion;
Rudy Stevenson - conductor.
on #7-17 (May 21, 1965) "Wild & Warm":
Arthur Jenkins - piano;
Ed Thompson - bass;
Sonny Morgan - percussion.
Взамен уже дважды ушедших в архив.
05:26
275
Нет комментариев. Ваш будет первым!