Поиск

(Latin Jazz, Voccal Jazz) Milton Nascimento — Courage — 1969, FLAC (tracks+.cue), lossless

(Latin Jazz, Voccal Jazz) Milton Nascimento — Courage — 1969, FLAC (tracks+.cue), lossless
Треклист:
Milton Nascimento — Courage
Жанр: Latin Jazz, Voccal Jazz
Год издания диска: 1969
Издатель (лейбл): A&M Records
Номер по каталогу: 393 019-2
Аудиокодек: FLAC (*.flac)
Тип рипа: tracks+.cue
Битрейт аудио: lossless
Продолжительность: 34:27
Риппер: mishka1981
Наличие сканов в содержимом раздачи: да
Треклист:
01. Bridges (Travessia) (3:52)
02. Vera Cruz (3:13)
03. Tres Pontas (2:45)
04. Outubro (October) (4:13)
05. Courage (3:27)
06. Rio Vermelho (3:23)
07. Gira Girou (Round 'N' Round) (3:26)
08. Moro Velho (4:29)
09. Catavento (2:31)
10. Cancao Do Sol (Saltworkers Song) (3:07)
 
Лог создания рипа
Exact Audio Copy V1.0 beta 1 from 15. November 2010
EAC extraction logfile from 9. August 2011, 23:17
Milton Nascimento / Courage
Used drive : TSSTcorpCDDVDW TS-L633A Adapter: 3 ID: 0
Read mode : Secure
Utilize accurate stream : Yes
Defeat audio cache : Yes
Make use of C2 pointers : No
Read offset correction : 6
Overread into Lead-In and Lead-Out : No
Fill up missing offset samples with silence : Yes
Delete leading and trailing silent blocks : No
Null samples used in CRC calculations : Yes
Used interface : Installed external ASPI interface
Gap handling : Appended to previous track
Used output format : User Defined Encoder
Selected bitrate : 896 kBit/s
Quality : High
Add ID3 tag : No
Command line compressor : C:\Program Files\Exact Audio Copy\FLAC\FLAC.EXE
Additional command line options : -8 -V -T "ARTIST=%a" -T "TITLE=%t" -T "ALBUM=%g" -T "DATE=%y" -T "TRACKNUMBER=%n" -T "TOTALTRACKS=%x" -T "GENRE=%m" -T "ALBUMARTIST=%v" -T "ALBUM ARTIST=%v" -T "COMMENT=EAC Secure Mode, Test & Copy, AccurateRip, FLAC -8" %s
TOC of the extracted CD
Track | Start | Length | Start sector | End sector
---------------------------------------------------------
1 | 0:00.33 | 3:52.00 | 33 | 17432
2 | 3:52.33 | 3:13.05 | 17433 | 31912
3 | 7:05.38 | 2:45.25 | 31913 | 44312
4 | 9:50.63 | 4:12.55 | 44313 | 63267
5 | 14:03.43 | 3:27.37 | 63268 | 78829
6 | 17:31.05 | 3:23.18 | 78830 | 94072
7 | 20:54.23 | 3:26.32 | 94073 | 109554
8 | 24:20.55 | 4:28.58 | 109555 | 129712
9 | 28:49.38 | 2:31.07 | 129713 | 141044
10 | 31:20.45 | 3:07.08 | 141045 | 155077
Track 1
Filename C:\MY RIPS\01 - Bridges (Travessia).wav
Pre-gap length 0:00:02.33
Peak level 92.4 %
Extraction speed 1.0 X
Track quality 100.0 %
Test CRC 94AA4447
Copy CRC 94AA4447
Accurately ripped (confidence 3) [682B4726]
Copy OK
Track 2
Filename C:\MY RIPS\02 - Vera Cruz.wav
Pre-gap length 0:00:02.30
Peak level 93.0 %
Extraction speed 1.1 X
Track quality 100.0 %
Test CRC 61E419AE
Copy CRC 61E419AE
Accurately ripped (confidence 3) [044A178A]
Copy OK
Track 3
Filename C:\MY RIPS\03 - Tres Pontas.wav
Pre-gap length 0:00:02.55
Peak level 82.2 %
Extraction speed 1.1 X
Track quality 100.0 %
Test CRC E4676FD7
Copy CRC E4676FD7
Accurately ripped (confidence 3) [9DA9A750]
Copy OK
Track 4
Filename C:\MY RIPS\04 - Outubro (October).wav
Pre-gap length 0:00:09.10
Peak level 88.5 %
Extraction speed 1.3 X
Track quality 100.0 %
Test CRC CA618820
Copy CRC CA618820
Accurately ripped (confidence 3) [5E7DC167]
Copy OK
Track 5
Filename C:\MY RIPS\05 - Courage.wav
Pre-gap length 0:00:02.60
Peak level 91.3 %
Extraction speed 1.4 X
Track quality 100.0 %
Test CRC E00FDC16
Copy CRC E00FDC16
Accurately ripped (confidence 3) [1CDCCBF2]
Copy OK
Track 6
Filename C:\MY RIPS\06 - Rio Vermelho.wav
Pre-gap length 0:00:03.50
Peak level 84.4 %
Extraction speed 1.4 X
Track quality 100.0 %
Test CRC 6F44D39E
Copy CRC 6F44D39E
Accurately ripped (confidence 3) [F35EA79C]
Copy OK
Track 7
Filename C:\MY RIPS\07 - Gira Girou (Round 'N' Round).wav
Pre-gap length 0:00:03.03
Peak level 77.7 %
Extraction speed 1.5 X
Track quality 100.0 %
Test CRC 6D4397B2
Copy CRC 6D4397B2
Accurately ripped (confidence 3) [249D7A86]
Copy OK
Track 8
Filename C:\MY RIPS\08 - Moro Velho.wav
Pre-gap length 0:00:05.17
Peak level 81.0 %
Extraction speed 1.7 X
Track quality 100.0 %
Test CRC 6218CEC8
Copy CRC 6218CEC8
Accurately ripped (confidence 3) [178406CF]
Copy OK
Track 9
Filename C:\MY RIPS\09 - Catavento.wav
Pre-gap length 0:00:01.55
Peak level 73.8 %
Extraction speed 1.0 X
Track quality 99.9 %
Test CRC CD03BA04
Copy CRC CD03BA04
Accurately ripped (confidence 3) [BBAD530B]
Copy OK
Track 10
Filename C:\MY RIPS\10 - Cancao Do Sol (Saltworkers Song).wav
Pre-gap length 0:00:04.67
Peak level 85.6 %
Extraction speed 1.7 X
Track quality 100.0 %
Test CRC 2F1A6A60
Copy CRC 2F1A6A60
Accurately ripped (confidence 3) [645C807A]
Copy OK
All tracks accurately ripped
No errors occurred
End of status report
==== Log checksum 6A76C85A7CC9DE04E3695A22893B43220B040BE57BD47C4E88CA4310FFDB28A3 ====
 
Содержание индексной карты (.CUE)
REM GENRE Jazz
REM DATE 1969
REM DISCID 7C08130A
REM COMMENT "ExactAudioCopy v1.0b1"
PERFORMER "Milton Nascimento"
TITLE "Courage"
FILE "01 - Bridges (Travessia).wav" WAVE
TRACK 01 AUDIO
TITLE "Bridges (Travessia)"
PERFORMER "Milton Nascimento"
PREGAP 00:00:33
INDEX 01 00:00:00
TRACK 02 AUDIO
TITLE "Vera Cruz"
PERFORMER "Milton Nascimento"
INDEX 00 03:49:45
FILE "02 - Vera Cruz.wav" WAVE
INDEX 01 00:00:00
TRACK 03 AUDIO
TITLE "Tres Pontas"
PERFORMER "Milton Nascimento"
INDEX 00 03:10:25
FILE "03 - Tres Pontas.wav" WAVE
INDEX 01 00:00:00
TRACK 04 AUDIO
TITLE "Outubro (October)"
PERFORMER "Milton Nascimento"
INDEX 00 02:36:15
FILE "04 - Outubro (October).wav" WAVE
INDEX 01 00:00:00
TRACK 05 AUDIO
TITLE "Courage"
PERFORMER "Milton Nascimento"
INDEX 00 04:09:70
FILE "05 - Courage.wav" WAVE
INDEX 01 00:00:00
TRACK 06 AUDIO
TITLE "Rio Vermelho"
PERFORMER "Milton Nascimento"
INDEX 00 03:23:62
FILE "06 - Rio Vermelho.wav" WAVE
INDEX 01 00:00:00
TRACK 07 AUDIO
TITLE "Gira Girou (Round 'N' Round)"
PERFORMER "Milton Nascimento"
INDEX 00 03:20:15
FILE "07 - Gira Girou (Round 'N' Round).wav" WAVE
INDEX 01 00:00:00
TRACK 08 AUDIO
TITLE "Moro Velho"
PERFORMER "Milton Nascimento"
INDEX 00 03:21:15
FILE "08 - Moro Velho.wav" WAVE
INDEX 01 00:00:00
TRACK 09 AUDIO
TITLE "Catavento"
PERFORMER "Milton Nascimento"
INDEX 00 04:27:03
FILE "09 - Catavento.wav" WAVE
INDEX 01 00:00:00
TRACK 10 AUDIO
TITLE "Cancao Do Sol (Saltworkers Song)"
PERFORMER "Milton Nascimento"
INDEX 00 02:26:15
FILE "10 - Cancao Do Sol (Saltworkers Song).wav" WAVE
INDEX 01 00:00:00
23:46
429
Нет комментариев. Ваш будет первым!