Поиск

(Latin Jazz) Tito Puente - Royal T - 1993, FLAC (tracks+.cue), lossless

(Latin Jazz) Tito Puente - Royal T - 1993, FLAC (tracks+.cue), lossless
Треклист:
Tito Puente – Royal T
Жанр: Latin Jazz
Год издания: 1993
Издатель (лейбл): Concord
Номер по каталогу: CCD-4553
Аудиокодек: FLAC (*.flac)
Тип рипа: tracks+.cue
Битрейт аудио: lossless
Продолжительность: 59:43
Rip by tiburon
Наличие сканов в содержимом раздачи: да
Треклист:
01. Donna Lee (4:37)
02. Tokyo Blues (5:19)
03. Virgo (7:12)
04. Moanin (7:27)
05. Stompin At The Savoy (4:56)
06. Encuentro (7:29)
07. Mambo Gallego (5:12)
08. Second Wind (6:09)
09. Royal T (3:49)
10. Slam Bam (7:34)
Personnel:
Tito Puente - timbales, timbalitos, marimba, percussion
Johnny Rodriguez - bongos, percussion
Jose Rodriguez - bongos, percussion
Piro Rodrigues - trumpet, flugelhorn
Tony Lujan - trumpet, flugelhorn
Mario Rivera - piccolo, flute, soprano and tenor saxes
Bobby Porcelli - alto and baritone saxes
Sam Burtis - trombone
Arturo Velasco - trombone
Sonny Bravo - piano
Bobby Rodriguez - bass
Rebeca Mauleon - synthesizer
 
 
Лог создания рипа
Exact Audio Copy V1.0 beta 3 from 29. August 2011
EAC extraction logfile from 5. February 2013, 16:45
Tito Puente / Royal T
Used drive : HL-DT-STDVDRAM GH20NS10 Adapter: 2 ID: 1
Read mode : Secure
Utilize accurate stream : Yes
Defeat audio cache : Yes
Make use of C2 pointers : No
Read offset correction : 667
Overread into Lead-In and Lead-Out : No
Fill up missing offset samples with silence : Yes
Delete leading and trailing silent blocks : No
Null samples used in CRC calculations : Yes
Used interface : Native Win32 interface for Win NT & 2000
Gap handling : Appended to previous track
Used output format : User Defined Encoder
Selected bitrate : 1024 kBit/s
Quality : High
Add ID3 tag : No
Command line compressor : C:\Program Files\Exact Audio Copy\Flac\flac.exe
Additional command line options : -8 -V -T "ARTIST=%artist%" -T "TITLE=%title%" -T "ALBUM=%albumtitle%" -T "DATE=%year%" -T "TRACKNUMBER=%tracknr%" -T "TOTALTRACKS=%numtracks%" -T "GENRE=%genre%" -T "ALBUMARTIST=%albumartist%" -T "ALBUM ARTIST=%albumartist%" -T "COMMENT=EAC Secure Mode, Test & Copy, AccurateRip, FLAC -8" %source%
TOC of the extracted CD
Track | Start | Length | Start sector | End sector
---------------------------------------------------------
1 | 0:00.00 | 4:36.57 | 0 | 20756
2 | 4:36.57 | 5:18.53 | 20757 | 44659
3 | 9:55.35 | 7:12.15 | 44660 | 77074
4 | 17:07.50 | 7:26.65 | 77075 | 110589
5 | 24:34.40 | 4:55.47 | 110590 | 132761
6 | 29:30.12 | 7:29.15 | 132762 | 166451
7 | 36:59.27 | 5:11.43 | 166452 | 189819
8 | 42:10.70 | 6:09.30 | 189820 | 217524
9 | 48:20.25 | 3:48.72 | 217525 | 234696
10 | 52:09.22 | 7:33.43 | 234697 | 268714
Track 1
Filename D:\Tito Puente - Royal T (1993) [FLAC]\01 - Donna Lee.wav
Pre-gap length 0:00:02.00
Peak level 93.2 %
Extraction speed 4.8 X
Track quality 100.0 %
Test CRC 7A7E4E78
Copy CRC 7A7E4E78
Cannot be verified as accurate (confidence 4) [0E40E588], AccurateRip returned [A4386C07] (AR v2)
Copy OK
Track 2
Filename D:\Tito Puente - Royal T (1993) [FLAC]\02 - Tokyo Blues.wav
Pre-gap length 0:00:03.67
Peak level 90.9 %
Extraction speed 4.7 X
Track quality 99.9 %
Test CRC 8BB8E01D
Copy CRC 8BB8E01D
Cannot be verified as accurate (confidence 4) [EC376E7B], AccurateRip returned [15B80715] (AR v2)
Copy OK
Track 3
Filename D:\Tito Puente - Royal T (1993) [FLAC]\03 - Virgo.wav
Pre-gap length 0:00:03.30
Peak level 99.9 %
Extraction speed 6.1 X
Track quality 100.0 %
Test CRC 41104444
Copy CRC 41104444
Cannot be verified as accurate (confidence 4) [34A64FBB], AccurateRip returned [F775129E] (AR v2)
Copy OK
Track 4
Filename D:\Tito Puente - Royal T (1993) [FLAC]\04 - Moanin.wav
Pre-gap length 0:00:03.65
Peak level 100.0 %
Extraction speed 6.1 X
Track quality 99.9 %
Test CRC 7FAD7058
Copy CRC 7FAD7058
Cannot be verified as accurate (confidence 4) [A007FFA4], AccurateRip returned [AF1BFE24] (AR v2)
Copy OK
Track 5
Filename D:\Tito Puente - Royal T (1993) [FLAC]\05 - Stompin At The Savoy.wav
Pre-gap length 0:00:03.63
Peak level 99.4 %
Extraction speed 7.1 X
Track quality 100.0 %
Test CRC D99E44A4
Copy CRC D99E44A4
Cannot be verified as accurate (confidence 4) [761483CD], AccurateRip returned [904C32F7] (AR v2)
Copy OK
Track 6
Filename D:\Tito Puente - Royal T (1993) [FLAC]\06 - Encuentro.wav
Pre-gap length 0:00:03.42
Peak level 82.4 %
Extraction speed 6.9 X
Track quality 99.9 %
Test CRC 0671D0A7
Copy CRC 0671D0A7
Cannot be verified as accurate (confidence 4) [51645CCB], AccurateRip returned [0C94EF14] (AR v2)
Copy OK
Track 7
Filename D:\Tito Puente - Royal T (1993) [FLAC]\07 - Mambo Gallego.wav
Pre-gap length 0:00:03.55
Peak level 99.8 %
Extraction speed 7.9 X
Track quality 100.0 %
Test CRC 628E4C1B
Copy CRC 628E4C1B
Cannot be verified as accurate (confidence 4) [F05088EB], AccurateRip returned [993245D9] (AR v2)
Copy OK
Track 8
Filename D:\Tito Puente - Royal T (1993) [FLAC]\08 - Second Wind.wav
Pre-gap length 0:00:03.48
Peak level 100.0 %
Extraction speed 8.1 X
Track quality 100.0 %
Test CRC 530D9752
Copy CRC 530D9752
Cannot be verified as accurate (confidence 4) [008458F0], AccurateRip returned [448356B0] (AR v2)
Copy OK
Track 9
Filename D:\Tito Puente - Royal T (1993) [FLAC]\09 - Royal T.wav
Pre-gap length 0:00:03.40
Peak level 92.4 %
Extraction speed 8.0 X
Track quality 100.0 %
Test CRC A1E7E726
Copy CRC A1E7E726
Cannot be verified as accurate (confidence 4) [B50356D9], AccurateRip returned [1EA85D0B] (AR v2)
Copy OK
Track 10
Filename D:\Tito Puente - Royal T (1993) [FLAC]\10 - Slam Bam.wav
Pre-gap length 0:00:03.47
Peak level 92.4 %
Extraction speed 9.1 X
Track quality 100.0 %
Test CRC 89996EED
Copy CRC 89996EED
Cannot be verified as accurate (confidence 4) [137ACD02], AccurateRip returned [CEC4BDF7] (AR v2)
Copy OK
No tracks could be verified as accurate
You may have a different pressing from the one(s) in the database
No errors occurred
End of status report
==== Log checksum 949F27ADD2EB9A685575D93F79DC3280E20D65B37DD3398A0FEC2B082FA5E3BE ====
 
Содержание индексной карты (.CUE)
REM GENRE "Latin Jazz"
REM DATE 1993
REM DISCID 7F0DFE0A
REM COMMENT "ExactAudioCopy v1.0b3"
PERFORMER "Tito Puente"
TITLE "Royal T"
FILE "01 - Donna Lee.flac" WAVE
TRACK 01 AUDIO
TITLE "Donna Lee"
PERFORMER "Tito Puente"
INDEX 01 00:00:00
TRACK 02 AUDIO
TITLE "Tokyo Blues "
PERFORMER "Tito Puente"
INDEX 00 04:32:65
FILE "02 - Tokyo Blues.flac" WAVE
INDEX 01 00:00:00
TRACK 03 AUDIO
TITLE "Virgo"
PERFORMER "Tito Puente"
INDEX 00 05:15:23
FILE "03 - Virgo.flac" WAVE
INDEX 01 00:00:00
TRACK 04 AUDIO
TITLE "Moanin"
PERFORMER "Tito Puente"
INDEX 00 07:08:25
FILE "04 - Moanin.flac" WAVE
INDEX 01 00:00:00
TRACK 05 AUDIO
TITLE "Stompin At The Savoy "
PERFORMER "Tito Puente"
INDEX 00 07:23:02
FILE "05 - Stompin At The Savoy.flac" WAVE
INDEX 01 00:00:00
TRACK 06 AUDIO
TITLE "Encuentro"
PERFORMER "Tito Puente"
INDEX 00 04:52:05
FILE "06 - Encuentro.flac" WAVE
INDEX 01 00:00:00
TRACK 07 AUDIO
TITLE "Mambo Gallego "
PERFORMER "Tito Puente"
INDEX 00 07:25:35
FILE "07 - Mambo Gallego.flac" WAVE
INDEX 01 00:00:00
TRACK 08 AUDIO
TITLE "Second Wind "
PERFORMER "Tito Puente"
INDEX 00 05:07:70
FILE "08 - Second Wind.flac" WAVE
INDEX 01 00:00:00
TRACK 09 AUDIO
TITLE "Royal T"
PERFORMER "Tito Puente"
INDEX 00 06:05:65
FILE "09 - Royal T.flac" WAVE
INDEX 01 00:00:00
TRACK 10 AUDIO
TITLE "Slam Bam "
PERFORMER "Tito Puente"
INDEX 00 03:45:25
FILE "10 - Slam Bam.flac" WAVE
INDEX 01 00:00:00
 
CUETools log
[CUETools log; Date: 06.02.2013 12:05:00; Version: 2.0.9]
[CTDB TOCID: wBo79TZ4ctHK8BAix1RlLcfVaJs-] found.
[ CTDBID ] Status
[6c31788f] (2/2) Accurately ripped
[AccurateRip ID: 0016530d-00b3b641-7f0dfe0a] found.
Track [ CRC ] Status
01 [0e07568e] (0/4) No match
02 [f40dd128] (0/4) No match
03 [77e0f2eb] (0/4) No match
04 [43aa3a70] (0/4) No match
05 [c8b6effc] (0/4) No match
06 [26ea4dd6] (0/4) No match
07 [4e4c268f] (0/4) No match
08 [8b54ffad] (0/4) No match
09 [1fd71342] (0/4) No match
10 [de57a5c1] (0/4) No match
Offsetted by -2090:
01 [a4386c07] (4/4) Accurately ripped
02 [15b80715] (4/4) Accurately ripped
03 [f775129e] (4/4) Accurately ripped
04 [af1bfe24] (4/4) Accurately ripped
05 [904c32f7] (4/4) Accurately ripped
06 [0c94ef14] (4/4) Accurately ripped
07 [993245d9] (4/4) Accurately ripped
08 [448356b0] (4/4) Accurately ripped
09 [1ea85d0b] (4/4) Accurately ripped
10 [cec4bdf7] (4/4) Accurately ripped
Track Peak [ CRC32 ] [W/O NULL]
-- 100,0 [DB750248] [FC22A278]
01 93,2 [7A7E4E78] [5C6E1905]
02 90,9 [8BB8E01D] [FB10BBB0]
03 99,9 [41104444] [9506F418]
04 100,0 [7FAD7058] [7DF291CA]
05 99,4 [D99E44A4] [A08C664D]
06 82,4 [0671D0A7] [DE5E4437]
07 99,8 [628E4C1B] [057B66CD]
08 100,0 [530D9752] [E6901120]
09 92,4 [A1E7E726] [9758A1EB]
10 92,4 [89996EED] [1220F8A3]
10:07
391
Нет комментариев. Ваш будет первым!