Поиск

(Latin Jazz) Tito Puente — Out Of This World - 1991, FLAC (image+.cue), lossless

Треклист:
Tito Puente — Out Of This World
Жанр: Latin Jazz
Год выпуска диска: 1991
Label: Concord Records (CCD 4448)
Аудио кодек: FLAC
Тип рипа: image+.cue
Битрейт аудио: lossless
Продолжительность: 47:47
Треклист:
01. Descarga (3:10)
02. In Walked Bud (4:50)
03. Sweet Georgia Brown (4:39)
04. Amanecer Guajira (5:55)
05. 'S Wonderful (5:23)
06. Lucky Dog (2:54)
07. Out of This World (8:47)
08. Along Came Betty (5:31)
09. Latin Percussion Summit (6:39)
Personnel:
Tito Puente - vibes, timbales
Sonny Bravo - piano
Jose Madera - congas, percussion
Mario Rivera - tenor sax., flute, melodica
Bobby Rodriguez - trumpet, flugelhorn
John "Dandy" Rodriguez - bongo's, percussion
Jose "Papo" Rodriguez - chekere, bongos
Charles Sepulveda - trumpet, flugelhorn
Michael Turre - baritone sax., flute
Papo Vazquez - trombone
Jimmy Frisaura - contractor
Recorded at Coast Recorders, San Francisco, CA; December 1990.
   Автор рипа Oceandrop
 
Отчет ЕАС
Exact Audio Copy V0.99 prebeta 5 from 4. May 2009
EAC extraction logfile from 18. April 2010, 20:41
Tito Puente / Out of This World
Used drive : HL-DT-STDVD-ROM GDR8164B Adapter: 0 ID: 1
Read mode : Secure
Utilize accurate stream : Yes
Defeat audio cache : Yes
Make use of C2 pointers : No
Read offset correction : 102
Overread into Lead-In and Lead-Out : No
Fill up missing offset samples with silence : Yes
Delete leading and trailing silent blocks : No
Null samples used in CRC calculations : Yes
Used interface : Native Win32 interface for Win NT & 2000
Used output format : Internal WAV Routines
Sample format : 44.100 Hz; 16 Bit; Stereo
TOC of the extracted CD
Track | Start | Length | Start sector | End sector
---------------------------------------------------------
1 | 0:00.00 | 3:10.28 | 0 | 14277
2 | 3:10.28 | 4:50.10 | 14278 | 36037
3 | 8:00.38 | 4:38.40 | 36038 | 56927
4 | 12:39.03 | 5:54.45 | 56928 | 83522
5 | 18:33.48 | 5:23.02 | 83523 | 107749
6 | 23:56.50 | 2:53.45 | 107750 | 120769
7 | 26:50.20 | 8:47.00 | 120770 | 160294
8 | 35:37.20 | 5:30.73 | 160295 | 185117
9 | 41:08.18 | 6:39.00 | 185118 | 215042
Range status and errors
Selected range
Filename E:\Tito Puente - Out of This World\Tito Puente - Out of This World.wav
Peak level 100.0 %
Range quality 100.0 %
Test CRC CBBB14C0
Copy CRC CBBB14C0
Copy OK
No errors occurred
AccurateRip summary
Track 1 cannot be verified as accurate (confidence 1) [4752DA69], AccurateRip returned [7F75BA92]
Track 2 cannot be verified as accurate (confidence 1) [2D7C1F7F], AccurateRip returned [D9DC6E03]
Track 3 cannot be verified as accurate (confidence 1) [80BF45CB], AccurateRip returned [88822FB2]
Track 4 cannot be verified as accurate (confidence 1) [1552601A], AccurateRip returned [AED47C4F]
Track 5 cannot be verified as accurate (confidence 1) [CEA547B4], AccurateRip returned [FC21F6FF]
Track 6 cannot be verified as accurate (confidence 1) [F76CF6FC], AccurateRip returned [7C084D93]
Track 7 cannot be verified as accurate (confidence 1) [93D8833D], AccurateRip returned [20EF0906]
Track 8 cannot be verified as accurate (confidence 1) [69E95CF9], AccurateRip returned [D5B97FF8]
Track 9 cannot be verified as accurate (confidence 1) [1C95B71F], AccurateRip returned [4620A3D4]
No tracks could be verified as accurate
You may have a different pressing from the one(s) in the database
End of status report
   :arrow: Мои раздачи на трекере
16:51
272
Нет комментариев. Ваш будет первым!