Поиск

(Latin Jazz) The Latin Jazz Quintet (w/ Eric Dolphy) - The Latin Jazz Quintet {Japanese Edition} - 1961, FLAC (image+.cue), lossless

(Latin Jazz) The Latin Jazz Quintet (w/ Eric Dolphy) - The Latin Jazz Quintet {Japanese Edition} - 1961, FLAC (image+.cue), lossless
The Latin Jazz Quintet
Жанр: Latin Jazz
Страна-производитель диска: Japan
Год издания: 1961
Издатель (лейбл): Liberty
Номер по каталогу: TOCJ-50174
Страна: USA
Аудиокодек: FLAC (*.flac)
Тип рипа: image+.cue
Битрейт аудио: lossless
Продолжительность: 35:27
Источник (релизер): собственный рип
Наличие сканов в содержимом раздачи: да
Треклист:
1. You're The Cutest One
2. Speak Low
3. I Got Rhythm
4. Night In Tunisia
5. Cha Cha King
6. I Wish I Were In Love Again
7. You Don't Know What Love Is
8. Lover
9. Mangolina
10. April Rain
 
Лог создания рипа
Exact Audio Copy V1.0 beta 3 from 29. August 2011
Отчёт EAC об извлечении, выполненном 11. октября 2013, 19:54
The Latin Jazz Quintet / The Latin Jazz Quintet
Дисковод: HL-DT-STBDDVDRW CH10LS20 Adapter: 2 ID: 1
Режим чтения : Достоверность
Использование точного потока : Да
Отключение кэша аудио : Да
Использование указателей C2 : Нет
Коррекция смещения при чтении : 667
Способность читать области Lead-in и Lead-out : Нет
Заполнение пропущенных сэмплов тишиной : Да
Удаление блоков с тишиной в начале и конце : Нет
При вычислениях CRC использовались нулевые сэмплы : Да
Интерфейс : Встроенный Win32-интерфейс для Win NT/2000
Выходной формат : Пользовательский кодировщик
Выбранный битрейт : 128 kBit/s
Качество : Высокий
Добавление ID3-тега : Нет
Утилита сжатия : C:\Program Files\Exact Audio Copy\FLAC\FLAC.EXE
Дополнительные параметры : -V -8 -T "Date=%year%" -T "Genre=%genre%" %source%
TOC извлечённого CD
Трек | Старт | Длительность | Начальный сектор | Конечный сектор
---------------------------------------------------------------------
1 | 0:00.00 | 3:12.49 | 0 | 14448
2 | 3:12.49 | 4:58.63 | 14449 | 36861
3 | 8:11.37 | 2:35.22 | 36862 | 48508
4 | 10:46.59 | 3:54.34 | 48509 | 66092
5 | 14:41.18 | 2:36.59 | 66093 | 77851
6 | 17:18.02 | 3:20.71 | 77852 | 92922
7 | 20:38.73 | 3:19.10 | 92923 | 107857
8 | 23:58.08 | 2:48.51 | 107858 | 120508
9 | 26:46.59 | 2:11.18 | 120509 | 130351
10 | 28:58.02 | 6:29.12 | 130352 | 159538
Характеристики диапазона извлечения и сообщения об ошибках
Выбранный диапазон
Имя файла D:\DL\The Latin Jazz Quintet\The Latin Jazz Quintet - The Latin Jazz Quintet.wav
Пиковый уровень 100.0 %
Скорость извлечения 1.6 X
Качество диапазона 100.0 %
CRC теста 81E5368B
CRC копии 81E5368B
Копирование... OK
Ошибок не произошло
AccurateRip: сводка
Трек 1 : извлечено точно (доверие 1) [D159B1BC] (AR v1)
Трек 2 : извлечено точно (доверие 1) [96669108] (AR v1)
Трек 3 : извлечено точно (доверие 1) [E68A2395] (AR v1)
Трек 4 : извлечено точно (доверие 1) [7F2525C6] (AR v1)
Трек 5 : извлечено точно (доверие 1) [B86B0637] (AR v1)
Трек 6 : извлечено точно (доверие 1) [9EA52819] (AR v1)
Трек 7 : извлечено точно (доверие 1) [480C6DE7] (AR v1)
Трек 8 : извлечено точно (доверие 1) [168294E2] (AR v1)
Трек 9 : извлечено точно (доверие 1) [AA92EE3D] (AR v1)
Трек 10 : извлечено точно (доверие 1) [F7B65423] (AR v1)
Все треки извлечены точно
Конец отчёта
==== Контрольная сумма отчёта D487704F73BDF07751C6BCAA363EA622C8F08035B69E538D2EA6828F9E285BC8 ====
 
CUETools log
[CUETools log; Date: 12.10.2013 2:05:42; Version: 2.1.4]
[CTDB TOCID: 0TiKfS39WIuhWTW.8GuWaKq2b3E-] disk not present in database.
[AccurateRip ID: 000d0ba2-0067917d-75084f0a] found.
Track [ CRC | V2 ] Status
01 [d159b1bc|cd5eac21] (1+0/1) Accurately ripped
02 [96669108|4d1c3e48] (1+0/1) Accurately ripped
03 [e68a2395|767d1916] (1+0/1) Accurately ripped
04 [7f2525c6|31991cca] (1+0/1) Accurately ripped
05 [b86b0637|609c07c3] (1+0/1) Accurately ripped
06 [9ea52819|a7027c7e] (1+0/1) Accurately ripped
07 [480c6de7|75e20c06] (1+0/1) Accurately ripped
08 [168294e2|1f3dbfdf] (1+0/1) Accurately ripped
09 [aa92ee3d|fe123dc2] (1+0/1) Accurately ripped
10 [f7b65423|d07ac40b] (1+0/1) Accurately ripped
Track Peak [ CRC32 ] [W/O NULL] [ LOG ]
-- 100,0 [81E5368B] [4EA9DFCA] CRC32
01 100,0 [F6B5E24A] [2B719640]
02 100,0 [5AB54DDE] [B7F4EE02]
03 99,4 [F2CCF6C9] [928ACFBB]
04 100,0 [AF82C36D] [DF8B06B4]
05 99,1 [107160B2] [D1047C11]
06 100,0 [ECBDE579] [066D65ED]
07 80,1 [A778AE4F] [1AA49A2F]
08 98,2 [BF335FE4] [48F1D2E5]
09 90,2 [15F5DCAF] [0B7CEBC8]
10 91,4 [590065A5] [E7FF7681]
 
Лог проверки качества
-----------------------
DON'T MODIFY THIS FILE
-----------------------
PERFORMER: auCDtect Task Manager, ver. 1.6.0 RC1 build 1.6.0.1
Copyright (c) 2008-2010 y-soft. All rights reserved
http://y-soft.org
ANALYZER: auCDtect: CD records authenticity detector, version 0.8.2
Copyright (c) 2004 Oleg Berngardt. All rights reserved.
Copyright (c) 2004 Alexander Djourik. All rights reserved.
FILE: The Latin Jazz Quintet - The Latin Jazz Quintet.flac
Size: 123012168 Hash: AEEF05BD3F0BF174B745AD410800A8A1 Accuracy: -m0
Conclusion: CDDA 100%
Signature: 0A9B5D5FFD09400F7E0B2A665F6BA1FCBC8465D9
 
Состав
Felipe Diaz - leader, vibes
Eric Dolphy - flute, bass clarinet, alto
Arthur Jenkins - piano
Bobby Rodriguez - bass
Tommy Lopez - conga drum
Louie Ramirez - timbales
13:27
312
Нет комментариев. Ваш будет первым!