Поиск

(Latin Jazz, Tango) [CD] Pablo Ziegler & His Quintet for New Tango - Asfalto: Street Tango - 1998, FLAC (tracks+.cue), lossless

(Latin Jazz, Tango) [CD] Pablo Ziegler & His Quintet for New Tango - Asfalto: Street Tango - 1998, FLAC (tracks+.cue), lossless
Треклист:
Pablo Ziegler & His Quintet for New Tango - Asfalto: Street Tango
Жанр: Latin Jazz, Tango
Носитель: CD
Страна-производитель диска (релиза): США
Год издания: 1998
Издатель (лейбл): RCA Victor/BMG
Номер по каталогу: 09026 63266-2
Аудиокодек: FLAC (*.flac)
Тип рипа: tracks+.cue
Битрейт аудио: lossless
Продолжительность: 67:40
Источник (релизер): Chiptune (what)
Наличие сканов в содержимом раздачи: да
Треклист:
01. Asfalto (5:13)
02. La Muerte del Angel (3:10)
03. Milonga en el viento (6:06)
04. El Empedrado (5:27)
05. La Cumparsola (5:29)
06. Soledad (6:04)
07. Decarisimo (2:56)
08. Radio Tango II (7:21)
09. Elegante canyenguito (5:06)
10. Maria Ciudad (7:56)
11. Michelangelo 70 (3:14)
12. Dos cadencias sobre "Adios Nonino" (5:48)
13. Elegia sobre "Adios Nonino" (3:50)
 
Лог создания рипа
Exact Audio Copy V1.0 beta 3 from 29. August 2011
EAC extraction logfile from 18. November 2014, 20:51
Pablo Ziegler / Asfalto
Used drive : Optiarc DVD RW AD-5240S Adapter: 0 ID: 2
Read mode : Secure
Utilize accurate stream : Yes
Defeat audio cache : Yes
Make use of C2 pointers : No
Read offset correction : 48
Overread into Lead-In and Lead-Out : No
Fill up missing offset samples with silence : Yes
Delete leading and trailing silent blocks : No
Null samples used in CRC calculations : Yes
Used interface : Native Win32 interface for Win NT & 2000
Gap handling : Appended to previous track
Used output format : User Defined Encoder
Selected bitrate : 1024 kBit/s
Quality : High
Add ID3 tag : No
Command line compressor : C:\Program Files\Exact Audio Copy\FLAC\FLAC.EXE
Additional command line options : -8 -V -T "ARTIST=%artist%" -T "TITLE=%title%" -T "ALBUM=%albumtitle%" -T "DATE=%year%" -T "TRACKNUMBER=%tracknr%" -T "GENRE=%genre%" -T "PERFORMER=%albuminterpret%" -T "COMPOSER=%composer%" %haslyrics%--tag-from-file=LYRICS="%lyricsfile%"%haslyrics% -T "ALBUMARTIST=%albumartist%" -T "DISCNUMBER=%cdnumber%" -T "TOTALDISCS=%totalcds%" -T "TOTALTRACKS=%numtracks%" -T "COMMENT=%comment%" %source% -o %dest%
TOC of the extracted CD
Track | Start | Length | Start sector | End sector
---------------------------------------------------------
1 | 0:00.00 | 5:13.05 | 0 | 23479
2 | 5:13.05 | 3:09.67 | 23480 | 37721
3 | 8:22.72 | 6:05.68 | 37722 | 65164
4 | 14:28.65 | 5:27.07 | 65165 | 89696
5 | 19:55.72 | 5:28.58 | 89697 | 114354
6 | 25:24.55 | 6:04.12 | 114355 | 141666
7 | 31:28.67 | 2:55.55 | 141667 | 154846
8 | 34:24.47 | 7:21.00 | 154847 | 187921
9 | 41:45.47 | 5:06.00 | 187922 | 210871
10 | 46:51.47 | 7:55.68 | 210872 | 246564
11 | 54:47.40 | 3:14.00 | 246565 | 261114
12 | 58:01.40 | 5:48.35 | 261115 | 287249
13 | 63:50.00 | 3:50.30 | 287250 | 304529
Track 1
Filename Z:\# What.cd\Pablo Ziegler - Asfalto, Street Tango (1998)\Pablo Ziegler - Asfalto, Street Tango (1998) [FLAC] {BMG 09026 63266 2}\01 - Asfalto.wav
Pre-gap length 0:00:02.00
Peak level 99.8 %
Extraction speed 2.4 X
Track quality 99.9 %
Test CRC FE71A618
Copy CRC FE71A618
Cannot be verified as accurate (confidence 2) [C8C61C26], AccurateRip returned [14456EEF] (AR v2)
Copy OK
Track 2
Filename Z:\# What.cd\Pablo Ziegler - Asfalto, Street Tango (1998)\Pablo Ziegler - Asfalto, Street Tango (1998) [FLAC] {BMG 09026 63266 2}\02 - La Muerte del Angel.wav
Pre-gap length 0:00:01.40
Peak level 99.8 %
Extraction speed 2.3 X
Track quality 99.9 %
Test CRC 483F7339
Copy CRC 483F7339
Cannot be verified as accurate (confidence 2) [03FDD5CD], AccurateRip returned [3898C66E] (AR v2)
Copy OK
Track 3
Filename Z:\# What.cd\Pablo Ziegler - Asfalto, Street Tango (1998)\Pablo Ziegler - Asfalto, Street Tango (1998) [FLAC] {BMG 09026 63266 2}\03 - Milonga en el viento.wav
Pre-gap length 0:00:01.86
Peak level 99.8 %
Extraction speed 3.2 X
Track quality 100.0 %
Test CRC 49DC3D2F
Copy CRC 49DC3D2F
Cannot be verified as accurate (confidence 2) [46C48D13], AccurateRip returned [3D495B58] (AR v2)
Copy OK
Track 4
Filename Z:\# What.cd\Pablo Ziegler - Asfalto, Street Tango (1998)\Pablo Ziegler - Asfalto, Street Tango (1998) [FLAC] {BMG 09026 63266 2}\04 - El Empedrado.wav
Pre-gap length 0:00:01.77
Peak level 99.8 %
Extraction speed 3.4 X
Track quality 100.0 %
Test CRC FA63F728
Copy CRC FA63F728
Cannot be verified as accurate (confidence 2) [D8007F84], AccurateRip returned [55CED293] (AR v2)
Copy OK
Track 5
Filename Z:\# What.cd\Pablo Ziegler - Asfalto, Street Tango (1998)\Pablo Ziegler - Asfalto, Street Tango (1998) [FLAC] {BMG 09026 63266 2}\05 - La Cumparsola.wav
Peak level 99.8 %
Extraction speed 3.7 X
Track quality 100.0 %
Test CRC 216EE1E1
Copy CRC 216EE1E1
Cannot be verified as accurate (confidence 2) [98F59142], AccurateRip returned [1D656D09] (AR v2)
Copy OK
Track 6
Filename Z:\# What.cd\Pablo Ziegler - Asfalto, Street Tango (1998)\Pablo Ziegler - Asfalto, Street Tango (1998) [FLAC] {BMG 09026 63266 2}\06 - Soledad.wav
Pre-gap length 0:00:02.40
Peak level 99.8 %
Extraction speed 3.9 X
Track quality 100.0 %
Test CRC 595485EC
Copy CRC 595485EC
Cannot be verified as accurate (confidence 2) [BF52A112], AccurateRip returned [75F2D855] (AR v2)
Copy OK
Track 7
Filename Z:\# What.cd\Pablo Ziegler - Asfalto, Street Tango (1998)\Pablo Ziegler - Asfalto, Street Tango (1998) [FLAC] {BMG 09026 63266 2}\07 - Decarísimo.wav
Peak level 99.8 %
Extraction speed 3.7 X
Track quality 100.0 %
Test CRC E774B147
Copy CRC E774B147
Cannot be verified as accurate (confidence 2) [E7CEC7AD], AccurateRip returned [DFF6CE93] (AR v2)
Copy OK
Track 8
Filename Z:\# What.cd\Pablo Ziegler - Asfalto, Street Tango (1998)\Pablo Ziegler - Asfalto, Street Tango (1998) [FLAC] {BMG 09026 63266 2}\08 - Radio Tango II.wav
Pre-gap length 0:00:02.00
Peak level 99.8 %
Extraction speed 4.3 X
Track quality 100.0 %
Test CRC 3C143722
Copy CRC 3C143722
Cannot be verified as accurate (confidence 2) [A189462F], AccurateRip returned [9F012843] (AR v2)
Copy OK
Track 9
Filename Z:\# What.cd\Pablo Ziegler - Asfalto, Street Tango (1998)\Pablo Ziegler - Asfalto, Street Tango (1998) [FLAC] {BMG 09026 63266 2}\09 - Elegante canyenguito.wav
Peak level 99.0 %
Extraction speed 4.4 X
Track quality 100.0 %
Test CRC 9ACAEA7D
Copy CRC 9ACAEA7D
Cannot be verified as accurate (confidence 2) [455F4B4A], AccurateRip returned [B377C1CC] (AR v2)
Copy OK
Track 10
Filename Z:\# What.cd\Pablo Ziegler - Asfalto, Street Tango (1998)\Pablo Ziegler - Asfalto, Street Tango (1998) [FLAC] {BMG 09026 63266 2}\10 - María Ciudad.wav
Pre-gap length 0:00:01.13
Peak level 97.7 %
Extraction speed 4.9 X
Track quality 100.0 %
Test CRC 84BEC0D6
Copy CRC 84BEC0D6
Cannot be verified as accurate (confidence 2) [F811B42A], AccurateRip returned [F6409EC3] (AR v2)
Copy OK
Track 11
Filename Z:\# What.cd\Pablo Ziegler - Asfalto, Street Tango (1998)\Pablo Ziegler - Asfalto, Street Tango (1998) [FLAC] {BMG 09026 63266 2}\11 - Michelangelo 70.wav
Pre-gap length 0:00:01.40
Peak level 99.8 %
Extraction speed 4.6 X
Track quality 100.0 %
Test CRC C2D77787
Copy CRC C2D77787
Cannot be verified as accurate (confidence 2) [99E66A7F], AccurateRip returned [B2D44117] (AR v2)
Copy OK
Track 12
Filename Z:\# What.cd\Pablo Ziegler - Asfalto, Street Tango (1998)\Pablo Ziegler - Asfalto, Street Tango (1998) [FLAC] {BMG 09026 63266 2}\12 - Dos cadencias sobre ''Adiós Nonino''.wav
Pre-gap length 0:00:03.37
Peak level 99.8 %
Extraction speed 5.1 X
Track quality 100.0 %
Test CRC A7997FB7
Copy CRC A7997FB7
Cannot be verified as accurate (confidence 2) [EFDC43F1], AccurateRip returned [DA1B6B8F] (AR v2)
Copy OK
Track 13
Filename Z:\# What.cd\Pablo Ziegler - Asfalto, Street Tango (1998)\Pablo Ziegler - Asfalto, Street Tango (1998) [FLAC] {BMG 09026 63266 2}\13 - Elegía sobre ''Adiós Nonino''.wav
Peak level 95.5 %
Extraction speed 4.4 X
Track quality 99.9 %
Test CRC 2D91EE37
Copy CRC 2D91EE37
Cannot be verified as accurate (confidence 2) [44F06405], AccurateRip returned [63838CDD] (AR v2)
Copy OK
No tracks could be verified as accurate
You may have a different pressing from the one(s) in the database
No errors occurred
End of status report
---- CUETools DB Plugin V2.1.4
[CTDB TOCID: hcdGB22p44sdEcqcB.cUAV.GJRg-] found
Submit result: hcdGB22p44sdEcqcB.cUAV.GJRg- has been uploaded
Track | CTDB Status
1 | (0/2) No match
2 | (0/2) No match
3 | (0/2) No match
4 | (0/2) No match
5 | (0/2) No match
6 | (0/2) No match
7 | (0/2) No match
8 | (0/2) No match
9 | (0/2) No match
10 | (0/2) No match
11 | (0/2) No match
12 | (0/2) No match
13 | (0/2) No match
==== Log checksum 1971D488AF129A10833C5226A813D65780BCF5E5D061CC9C26BD42422413A1D8 ====
 
Содержание индексной карты (.CUE)
REM GENRE Tango
REM DATE 1998
REM DISCID B70FDC0D
REM COMMENT "ExactAudioCopy v1.0b3"
PERFORMER "Pablo Ziegler"
TITLE "Asfalto: Street Tango"
FILE "01 - Asfalto.wav" WAVE
TRACK 01 AUDIO
TITLE "Asfalto"
PERFORMER "Pablo Ziegler"
ISRC USBC19801309
INDEX 01 00:00:00
TRACK 02 AUDIO
TITLE "La Muerte del Angel"
PERFORMER "Pablo Ziegler"
ISRC USBC19801310
INDEX 00 05:11:50
FILE "02 - La Muerte del Angel.wav" WAVE
INDEX 01 00:00:00
TRACK 03 AUDIO
TITLE "Milonga en el viento"
PERFORMER "Pablo Ziegler"
ISRC USBC19801311
INDEX 00 03:08:02
FILE "03 - Milonga en el viento.wav" WAVE
INDEX 01 00:00:00
TRACK 04 AUDIO
TITLE "El Empedrado"
PERFORMER "Pablo Ziegler"
ISRC USBC19801312
INDEX 00 06:04:10
FILE "04 - El Empedrado.wav" WAVE
INDEX 01 00:00:00
FILE "05 - La Cumparsola.wav" WAVE
TRACK 05 AUDIO
TITLE "La Cumparsola"
PERFORMER "Pablo Ziegler"
ISRC USBC19801313
INDEX 01 00:00:00
TRACK 06 AUDIO
TITLE "Soledad"
PERFORMER "Pablo Ziegler"
ISRC USBC19801314
INDEX 00 05:26:28
FILE "06 - Soledad.wav" WAVE
INDEX 01 00:00:00
FILE "07 - Decarisimo.wav" WAVE
TRACK 07 AUDIO
TITLE "Decarisimo"
PERFORMER "Pablo Ziegler"
ISRC USBC19801315
INDEX 01 00:00:00
TRACK 08 AUDIO
TITLE "Radio Tango II"
PERFORMER "Pablo Ziegler"
ISRC USBC19801316
INDEX 00 02:53:55
FILE "08 - Radio Tango II.wav" WAVE
INDEX 01 00:00:00
FILE "09 - Elegante canyenguito.wav" WAVE
TRACK 09 AUDIO
TITLE "Elegante canyenguito"
PERFORMER "Pablo Ziegler"
ISRC USBC19801317
INDEX 01 00:00:00
TRACK 10 AUDIO
TITLE "Maria Ciudad"
PERFORMER "Pablo Ziegler"
ISRC USBC19801318
INDEX 00 05:04:65
FILE "10 - Maria Ciudad.wav" WAVE
INDEX 01 00:00:00
TRACK 11 AUDIO
TITLE "Michelangelo 70"
PERFORMER "Pablo Ziegler"
ISRC USBC19801319
INDEX 00 07:54:38
FILE "11 - Michelangelo 70.wav" WAVE
INDEX 01 00:00:00
TRACK 12 AUDIO
TITLE "Dos cadencias sobre 'Adios Nonino'"
PERFORMER "Pablo Ziegler"
ISRC USBC19801320
INDEX 00 03:10:47
FILE "12 - Dos cadencias sobre 'Adios Nonino'.wav" WAVE
INDEX 01 00:00:00
FILE "13 - Elegia sobre 'Adios Nonino'.wav" WAVE
TRACK 13 AUDIO
TITLE "Elegia sobre 'Adios Nonino'"
PERFORMER "Pablo Ziegler"
ISRC USBC19801321
INDEX 01 00:00:00
 
Отчет CUETools
[CUETools log; Date: 26.05.2016 22:16:31; Version: 2.1.5]
[CTDB TOCID: hcdGB22p44sdEcqcB.cUAV.GJRg-] found.
Track | CTDB Status
1 | (2/5) Accurately ripped
2 | (2/5) Accurately ripped
3 | (2/5) Accurately ripped
4 | (2/5) Accurately ripped
5 | (2/5) Accurately ripped
6 | (2/5) Accurately ripped
7 | (2/5) Accurately ripped
8 | (2/5) Accurately ripped
9 | (2/5) Accurately ripped
10 | (2/5) Accurately ripped
11 | (2/5) Accurately ripped
12 | (2/5) Accurately ripped
13 | (2/5) Accurately ripped
[AccurateRip ID: 00206d83-0146fb8a-b70fdc0d] found.
Track [ CRC | V2 ] Status
01 [7e73286a|c8c61c26] (0+0/4) No match
02 [c7d58807|03fdd5cd] (0+0/4) No match
03 [ad6063b2|46c48d13] (0+0/4) No match
04 [5871e341|d8007f84] (0+0/4) No match
05 [8f09fefe|98f59142] (0+0/4) No match
06 [22d7f164|bf52a112] (0+0/4) No match
07 [a7d8626e|e7cec7ad] (0+0/4) No match
08 [60a3726b|a189462f] (0+0/4) No match
09 [aa6c31cb|455f4b4a] (0+0/4) No match
10 [9820a89e|f811b42a] (0+0/4) No match
11 [d698355b|99e66a7f] (0+0/4) No match
12 [a28d0d6f|efdc43f1] (0+0/4) No match
13 [113970ac|44f06405] (0+0/2) No match
Track Peak [ CRC32 ] [W/O NULL] [ LOG ]
-- 99,8 [E1A0E905] [DE9932D8]
01 99,8 [FE71A618] [112E5A6F] CRC32
02 99,8 [483F7339] [F95A0FB3] CRC32
03 99,8 [49DC3D2F] [D437C45E] CRC32
04 99,8 [FA63F728] [40E01E48] CRC32
05 99,8 [216EE1E1] [308BEEE4] CRC32
06 99,8 [595485EC] [7D6E7EEA] CRC32
07 99,8 [E774B147] [6DB87F9B] CRC32
08 99,8 [3C143722] [716BA033] CRC32
09 99,0 [9ACAEA7D] [BF2EA2CF] CRC32
10 97,7 [84BEC0D6] [2963FCA1] CRC32
11 99,8 [C2D77787] [736C7188] CRC32
12 99,8 [A7997FB7] [5C7EE7E5] CRC32
13 95,5 [2D91EE37] [0FF794B1] CRC32
 
Review by Josef Woodard
Who better to perpetuate the new tango pulse than one of its architects? Pianist Pablo Ziegler played with Piazzolla for a decade, in the '80s, and carries the legacy forward on his own, as heard on Pablo Ziegler and His Quintet for New Tango, Asfalto-Street Tango (RCA 0902663266; 67:42). Ziegler himself demonstrates improvisational flair to justify his nickname "jazzero," while bandoneon player Hector del Curto plays the Piazzolla role boldly. Fittingly enough, the album closes with "Elegy to Adios Ninos," a theme penned by Piazzolla, rearranged by Ziegler. Ziegler's music here adheres to the central traits that make new tango so powerful, fitted with bravura, swagger, and also, along the way, elegance.
 
Состав
Pablo Ziegler - piano
Hector del Curto - bandoneon
Quique Sinesi - guitars
Oscar Giunta - double bass
Horacio Lopez - drums
with
Antonio Agri - violin (#13)
Recorded in Buenos Aires in August 1996 - October 1997.
21:25
287
Нет комментариев. Ваш будет первым!