Поиск

(Latin Jazz,Tango) Astor Piazzolla - The Soul of Tango,Greatest Hits - 2000, FLAC (image+.cue), lossless

Треклист:
Astor Piazzolla / The Soul of Tango,Greatest Hits
Жанр: Latin Jazz,Tango
Год издания: 2000
Аудиокодек: FLAC (*.flac)
Тип рипа: image+.cue
Битрейт аудио: lossless
Продолжительность: 66:56+69:36
Источник (релизер): my disc
Наличие сканов в содержимом раздачи: да
Треклист:
01. Adios Nomino [0:07:45.60]
02. Milonga Del Angel [0:06:04.70]
03. Muerte Del Angel [0:02:53.72]
04. Verano Porteno [0:06:34.53]
05. Mumuki [0:08:28.00]
06. Libertango [0:04:05.22]
07. Tres Minutos Con La Realidad [0:02:52.53]
08. Camorra II [0:06:34.47]
09. Luna [0:10:02.60]
10. Tango Ballet [0:11:33.32]
01. Vuelvo Al Sur [0:04:04.41]
02. Duo De Amor [0:05:02.21]
03. Ausencias [0:03:31.72]
04. Tanguedia I [0:02:52.50]
05. Tanguedia III [0:03:46.19]
06. Tanguedia II [0:03:44.70]
07. Buenos Aires Hora Cero [0:05:52.29]
08. Fuga Y Misterio [0:03:57.52]
09. Presto [0:03:40.36]
10. Lento Melancolico [0:07:00.13]
11. Allegro Marcato [0:05:32.51]
12. Allegro Marcato [0:07:07.64]
13. Moderato [0:06:41.00]
14. Presto [0:06:41.43]
 
Лог создания рипа
Exact Audio Copy V0.99 prebeta 4 from 23. January 2008
Отчёт EAC об извлечении, выполненном 19. мая 2012, 5:27
Astor Piazzolla / The Soul Of Tango,Greatest Hits
Дисковод: ASUS DRW-1814BL Adapter: 1 ID: 0
Режим чтения : Достоверность
Использование точного потока : Да
Отключение кэша аудио : Да
Использование указателей C2 : Нет
Коррекция смещения при чтении : 6
Способность читать области Lead-in и Lead-out : Нет
Заполнение пропущенных сэмплов тишиной : Да
Удаление блоков с тишиной в начале и конце : Нет
При вычислениях CRC использовались нулевые сэмплы : Да
Интерфейс : Установленный внешний ASPI-интерфейс
Выходной формат : Пользовательский кодировщик
Выбранный битрейт : 1024 kBit/s
Качество : Высокий
Добавление ID3-тэга : Нет
Утилита сжатия : C:\Program Files\Exact Audio Copy\FLAC\FLAC.EXE
Дополнительные параметры : -6 -V -T "ARTIST=%a" -T "TITLE=%t" -T "ALBUM=%g" -T "DATE=%y" -T "TRACKNUMBER=%n" -T "GENRE=%m" -T "COMMENT=%e" %s -o %d
TOC извлечённого CD
Трек | Старт | Длительность | Начальный сектор | Конечный сектор
---------------------------------------------------------------------
1 | 0:00.00 | 7:45.60 | 0 | 34934
2 | 7:45.60 | 6:04.70 | 34935 | 62304
3 | 13:50.55 | 2:53.72 | 62305 | 75351
4 | 16:44.52 | 6:34.53 | 75352 | 104954
5 | 23:19.30 | 8:28.00 | 104955 | 143054
6 | 31:47.30 | 4:05.22 | 143055 | 161451
7 | 35:52.52 | 2:52.53 | 161452 | 174404
8 | 38:45.30 | 6:34.47 | 174405 | 204001
9 | 45:20.02 | 10:02.60 | 204002 | 249211
10 | 55:22.62 | 11:33.32 | 249212 | 301218
Характеристики диапазона извлечения и сообщения об ошибках
Выбранный диапазон
Имя файла H:\loSSleSS\Astor Piazzolla'00\Astor Piazzolla - The Soul Of Tango,Greatest Hits.wav
Пиковый уровень 99.6 %
Качество диапазона 100.0 %
CRC теста 314EFDC7
CRC копии 314EFDC7
Копирование... OK
Ошибок не произошло
AccurateRip: сводка
Трек 1 нет в базе данных
Трек 2 нет в базе данных
Трек 3 нет в базе данных
Трек 4 нет в базе данных
Трек 5 нет в базе данных
Трек 6 нет в базе данных
Трек 7 нет в базе данных
Трек 8 нет в базе данных
Трек 9 нет в базе данных
Трек 10 нет в базе данных
Ни одного трека нет в базе AccurateRip
Конец отчёта
disc 2:
 
скрытый текст
Exact Audio Copy V0.99 prebeta 4 from 23. January 2008
Отчёт EAC об извлечении, выполненном 19. мая 2012, 8:15
Astor Piazzolla / The Soul Of Tango,Greatest Hits-2
Дисковод: ASUS DRW-1814BL Adapter: 1 ID: 0
Режим чтения : Достоверность
Использование точного потока : Да
Отключение кэша аудио : Да
Использование указателей C2 : Нет
Коррекция смещения при чтении : 6
Способность читать области Lead-in и Lead-out : Нет
Заполнение пропущенных сэмплов тишиной : Да
Удаление блоков с тишиной в начале и конце : Нет
При вычислениях CRC использовались нулевые сэмплы : Да
Интерфейс : Установленный внешний ASPI-интерфейс
Выходной формат : Пользовательский кодировщик
Выбранный битрейт : 1024 kBit/s
Качество : Высокий
Добавление ID3-тэга : Нет
Утилита сжатия : C:\Program Files\Exact Audio Copy\FLAC\FLAC.EXE
Дополнительные параметры : -6 -V -T "ARTIST=%a" -T "TITLE=%t" -T "ALBUM=%g" -T "DATE=%y" -T "TRACKNUMBER=%n" -T "GENRE=%m" -T "COMMENT=%e" %s -o %d
TOC извлечённого CD
Трек | Старт | Длительность | Начальный сектор | Конечный сектор
---------------------------------------------------------------------
1 | 0:00.00 | 4:04.41 | 0 | 18340
2 | 4:04.41 | 5:02.21 | 18341 | 41011
3 | 9:06.62 | 3:31.72 | 41012 | 56908
4 | 12:38.59 | 2:52.50 | 56909 | 69858
5 | 15:31.34 | 3:46.19 | 69859 | 86827
6 | 19:17.53 | 3:44.70 | 86828 | 103697
7 | 23:02.48 | 5:52.29 | 103698 | 130126
8 | 28:55.02 | 3:57.52 | 130127 | 147953
9 | 32:52.54 | 3:40.36 | 147954 | 164489
10 | 36:33.15 | 7:00.13 | 164490 | 196002
11 | 43:33.28 | 5:32.51 | 196003 | 220953
12 | 49:06.04 | 7:07.64 | 220954 | 253042
13 | 56:13.68 | 6:41.00 | 253043 | 283117
14 | 62:54.68 | 6:41.43 | 283118 | 313235
Характеристики диапазона извлечения и сообщения об ошибках
Выбранный диапазон
Имя файла H:\loSSleSS\Astor Piazzolla'00\Astor Piazzolla - The Soul Of Tango,Greatest Hits-2.wav
Пиковый уровень 99.6 %
Качество диапазона 100.0 %
CRC теста F654D676
CRC копии F654D676
Копирование... OK
Ошибок не произошло
AccurateRip: сводка
Трек 1 нет в базе данных
Трек 2 нет в базе данных
Трек 3 нет в базе данных
Трек 4 нет в базе данных
Трек 5 нет в базе данных
Трек 6 нет в базе данных
Трек 7 нет в базе данных
Трек 8 нет в базе данных
Трек 9 нет в базе данных
Трек 10 нет в базе данных
Трек 11 нет в базе данных
Трек 12 нет в базе данных
Трек 13 нет в базе данных
Трек 14 нет в базе данных
Ни одного трека нет в базе AccurateRip
Конец отчёта
Доп. информация: Для желающих познакомиться с творчеством Астора предлагаю послушать данный сборник,вариации на тему "Танго" не оставят вас равнодушными.Диск записан в России:ООО "Фирма грамзаписи"Никитин"по зксклюзивной лицензии"Warner Music".
 
Об исполнителе (группе)
02:50
366
Нет комментариев. Ваш будет первым!