Поиск

(Latin Jazz) Steve Turre - Woody's Delight - 2012, FLAC (tracks+.cue), lossless

(Latin Jazz) Steve Turre - Woody's Delight - 2012, FLAC (tracks+.cue), lossless
Треклист:
Steve Turre / Woody's Delight
Жанр: Latin Jazz
Страна-производитель диска: USA
Год издания: 2012
Издатель (лейбл): HighNote
Номер по каталогу: HCD 7228
Страна: USA
Аудиокодек: FLAC (*.flac)
Тип рипа: tracks+.cue
Битрейт аудио: lossless
Продолжительность: 1:07:29
Источник (релизер): what.cd
Наличие сканов в содержимом раздачи: нет
Треклист:
1. Woody's Delight
2. Something For Sweets
3. In retrospect
4. Luna
5. Annette's For Sure
6. Adios Mi Amigo
7. Manny's Mambo
8. 3 For Woody
9. Brother Bob
 
Лог создания рипа
Exact Audio Copy V1.0 beta 2 from 29. April 2011
EAC extraction logfile from 18. March 2012, 17:56
Steve Turre / Woody's Delight
Used drive : PHILIPS CDRW/DVD CDD5263 Adapter: 1 ID: 0
Read mode : Secure
Utilize accurate stream : Yes
Defeat audio cache : Yes
Make use of C2 pointers : No
Read offset correction : 594
Overread into Lead-In and Lead-Out : No
Fill up missing offset samples with silence : Yes
Delete leading and trailing silent blocks : No
Null samples used in CRC calculations : Yes
Used interface : Native Win32 interface for Win NT & 2000
Gap handling : Appended to previous track
Used output format : User Defined Encoder
Selected bitrate : 128 kBit/s
Quality : High
Add ID3 tag : No
Command line compressor : C:\Program Files\Exact Audio Copy\Flac\flac.exe
Additional command line options : -8 -V -T "ARTIST=%artist%" -T "TITLE=%title%" -T "ALBUM=%albumtitle%" -T "DATE=%year%" -T "TRACKNUMBER=%tracknr%" -T "GENRE=%genre%" -T "PERFORMER=%albuminterpret%" -T "COMPOSER=%composer%" %haslyrics%--tag-from-file=LYRICS
TOC of the extracted CD
Track | Start | Length | Start sector | End sector
---------------------------------------------------------
1 | 0:00.00 | 6:45.63 | 0 | 30437
2 | 6:45.63 | 7:07.05 | 30438 | 62467
3 | 13:52.68 | 8:01.51 | 62468 | 98593
4 | 21:54.44 | 4:06.62 | 98594 | 117105
5 | 26:01.31 | 6:25.57 | 117106 | 146037
6 | 32:27.13 | 8:37.41 | 146038 | 184853
7 | 41:04.54 | 7:20.03 | 184854 | 217856
8 | 48:24.57 | 8:16.41 | 217857 | 255097
9 | 56:41.23 | 10:47.44 | 255098 | 303666
Track 1
Filename C:\EAC Rips\Steve Turre - Woody's Delight [FLAC]\01 - Woody's Delight.wav
Pre-gap length 0:00:02.00
Peak level 99.2 %
Extraction speed 1.1 X
Track quality 100.0 %
Test CRC 6B67117E
Copy CRC 6B67117E
Accurately ripped (confidence 1) [D8888A1A] (AR v2)
Copy OK
Track 2
Filename C:\EAC Rips\Steve Turre - Woody's Delight [FLAC]\02 - Something for Sweets.wav
Peak level 98.8 %
Extraction speed 1.1 X
Track quality 100.0 %
Test CRC 464E6CA4
Copy CRC 464E6CA4
Accurately ripped (confidence 1) [C8D571C9] (AR v2)
Copy OK
Track 3
Filename C:\EAC Rips\Steve Turre - Woody's Delight [FLAC]\03 - In Retrospect.wav
Peak level 100.0 %
Extraction speed 1.1 X
Track quality 100.0 %
Test CRC 1B61BC86
Copy CRC 1B61BC86
Accurately ripped (confidence 1) [C40A32D2] (AR v2)
Copy OK
Track 4
Filename C:\EAC Rips\Steve Turre - Woody's Delight [FLAC]\04 - Luna.wav
Peak level 99.7 %
Extraction speed 1.1 X
Track quality 100.0 %
Test CRC E419121C
Copy CRC E419121C
Accurately ripped (confidence 1) [EBB78B53] (AR v2)
Copy OK
Track 5
Filename C:\EAC Rips\Steve Turre - Woody's Delight [FLAC]\05 - Annette's for Sure.wav
Peak level 100.0 %
Extraction speed 1.0 X
Track quality 99.9 %
Test CRC C7CE5C11
Copy CRC C7CE5C11
Accurately ripped (confidence 1) [3573C9AF] (AR v2)
Copy OK
Track 6
Filename C:\EAC Rips\Steve Turre - Woody's Delight [FLAC]\06 - Adios Mi Amigo.wav
Peak level 100.0 %
Extraction speed 1.2 X
Track quality 100.0 %
Test CRC 2B1E5449
Copy CRC 2B1E5449
Accurately ripped (confidence 1) [B9401637] (AR v2)
Copy OK
Track 7
Filename C:\EAC Rips\Steve Turre - Woody's Delight [FLAC]\07 - Manny's Mambo.wav
Peak level 100.0 %
Extraction speed 1.1 X
Track quality 100.0 %
Test CRC AD0406EA
Copy CRC AD0406EA
Accurately ripped (confidence 1) [ED3FEFCF] (AR v2)
Copy OK
Track 8
Filename C:\EAC Rips\Steve Turre - Woody's Delight [FLAC]\08 - For Woody.wav
Peak level 99.4 %
Extraction speed 1.1 X
Track quality 100.0 %
Test CRC 8041FAF8
Copy CRC 8041FAF8
Accurately ripped (confidence 1) [48F023FB] (AR v2)
Copy OK
Track 9
Filename C:\EAC Rips\Steve Turre - Woody's Delight [FLAC]\09 - Brother Bob.wav
Peak level 100.0 %
Extraction speed 1.2 X
Track quality 100.0 %
Test CRC BC524F40
Copy CRC BC524F40
Accurately ripped (confidence 1) [20943C2D] (AR v2)
Copy OK
All tracks accurately ripped
No errors occurred
End of status report
==== Log checksum 5E6E1DCABB0D31CD60B9A90EC06842100C99B17D5ADEAEFE126C5ABA00117452 ====
 
Содержание индексной карты (.CUE)
REM GENRE Jazz
REM DATE 2012
REM DISCID 7A0FD009
REM COMMENT "ExactAudioCopy v1.0b2"
PERFORMER "Steve Turre"
TITLE "Woody's Delight"
FILE "01 - Woody's Delight.wav" WAVE
TRACK 01 AUDIO
TITLE "Woody's Delight"
PERFORMER "Steve Turre"
FLAGS DCP
INDEX 01 00:00:00
FILE "02 - Something For Sweets.wav" WAVE
TRACK 02 AUDIO
TITLE "Something for Sweets"
PERFORMER "Steve Turre"
FLAGS DCP
INDEX 01 00:00:00
FILE "03 - In Retrospect.wav" WAVE
TRACK 03 AUDIO
TITLE "In Retrospect"
PERFORMER "Steve Turre"
FLAGS DCP
INDEX 01 00:00:00
FILE "04 - Luna.wav" WAVE
TRACK 04 AUDIO
TITLE "Luna"
PERFORMER "Steve Turre"
FLAGS DCP
INDEX 01 00:00:00
FILE "05 - Annette's For Sure.wav" WAVE
TRACK 05 AUDIO
TITLE "Annette's for Sure"
PERFORMER "Steve Turre"
FLAGS DCP
INDEX 01 00:00:00
FILE "06 - Adios Mi Amigo.wav" WAVE
TRACK 06 AUDIO
TITLE "Adios Mi Amigo"
PERFORMER "Steve Turre"
FLAGS DCP
INDEX 01 00:00:00
FILE "07 - Manny's Mambo.wav" WAVE
TRACK 07 AUDIO
TITLE "Manny's Mambo"
PERFORMER "Steve Turre"
FLAGS DCP
INDEX 01 00:00:00
FILE "08 - For Woody.wav" WAVE
TRACK 08 AUDIO
TITLE "For Woody"
PERFORMER "Steve Turre"
FLAGS DCP
INDEX 01 00:00:00
FILE "09 - Brother Bob.wav" WAVE
TRACK 09 AUDIO
TITLE "Brother Bob"
PERFORMER "Steve Turre"
FLAGS DCP
INDEX 01 00:00:00
 
Об альбоме (сборнике)
Steve Turre demonstrates once again why he is one of the first call trombonists in the world on his fifth recording for HighNote Records, WOODY'S DELIGHT. This record is an aptly named homage to his mentor and former boss, Woody Shaw. Steve offers an intensely interesting program featuring five of today's greatest trumpeters in a program that captures at once Woody's fierce intensity, his limitless imagination and versatility and refracts it through the creative mind of Turre who delivers a tribute record which goes far beyond playing familiar repertoire but rather recalls the very spirit of its subject. On hand to help are the trumpeters Jon Faddis, Wallace Roney, Claudio Roditi, Freddie Hendrix and Chocolate Armenteros.
02:14
260
Нет комментариев. Ваш будет первым!