Поиск

(Latin Jazz, Spanish Guitar, Cuban) Duo Confluencia - 100 anos de ... Lecuona {ANS Records ANS 19009-2, USA} - 2009, FLAC (image+.cue), lossless

(Latin Jazz, Spanish Guitar, Cuban) Duo Confluencia - 100 anos de ... Lecuona {ANS Records ANS 19009-2, USA} - 2009, FLAC (image+.cue), lossless
Треклист:
Dúo Confluencia - 100 años de ... Lecuona
Жанр: Latin Jazz, Spanish Guitar, Cuban
Страна-производитель диска: USA
Год издания: 2009
Издатель (лейбл): ANS Records
Номер по каталогу: ANS 19009-2
Аудиокодек: FLAC (*.flac)
Тип рипа: image+.cue
Битрейт аудио: lossless
Продолжительность: 00:47:29
Источник (релизер): Собственный рип с оригинального фирменного диска (Darkman)
Наличие сканов в содержимом раздачи: да
Треклист:
01. La Comparsa 4:49
02. La Chancletera 5:02
03. Andalucia 3:07
04. Malagueña 3:53
05. Damisela Encantadora 3:09
06. Siempre En Mi Corazon 3:28
07. Siboney 3:48
08. Maria La O 3:32
09. El Zun Zun 4:32
10. Noche Azul 4:31
11. Como Arrullo De Palmas 3:43
12. Lamento Africano 3:55
Eduardo Martin & Walfrido Dominguez are "Dúo Confluencia" a virtuoso duo of Spanish guitars performing 12 famous works of the talented Cuban composer Ernesto Lecuona.
 
info
Cuban classics with a Flamenco flavor and impeccable virtuoso performance. Excellent playing and arrangements highlight this these two master guitarists.
 
Лог создания рипа
Exact Audio Copy V0.99 prebeta 5 from 4. May 2009
EAC extraction logfile from 31. August 2011, 20:20
Duo Confluencia / 100 Anos de ... Lecuona
Used drive : HL-DT-STDVD-RAM GSA-H54N Adapter: 0 ID: 0
Read mode : Secure
Utilize accurate stream : Yes
Defeat audio cache : Yes
Make use of C2 pointers : No
Read offset correction : 102
Overread into Lead-In and Lead-Out : No
Fill up missing offset samples with silence : Yes
Delete leading and trailing silent blocks : No
Null samples used in CRC calculations : Yes
Used interface : Native Win32 interface for Win NT & 2000
Used output format : User Defined Encoder
Selected bitrate : 320 kBit/s
Quality : High
Add ID3 tag : No
Command line compressor : C:\Program Files\Exact Audio Copy\Flac\flac.exe
Additional command line options : -8 -V %s
TOC of the extracted CD
Track | Start | Length | Start sector | End sector
---------------------------------------------------------
1 | 0:00.00 | 4:49.30 | 0 | 21704
2 | 4:49.30 | 5:01.67 | 21705 | 44346
3 | 9:51.22 | 3:07.33 | 44347 | 58404
4 | 12:58.55 | 3:52.52 | 58405 | 75856
5 | 16:51.32 | 3:08.43 | 75857 | 89999
6 | 20:00.00 | 3:28.27 | 90000 | 105626
7 | 23:28.27 | 3:48.15 | 105627 | 122741
8 | 27:16.42 | 3:31.63 | 122742 | 138629
9 | 30:48.30 | 4:32.30 | 138630 | 159059
10 | 35:20.60 | 4:31.00 | 159060 | 179384
11 | 39:51.60 | 3:42.40 | 179385 | 196074
12 | 43:34.25 | 3:54.42 | 196075 | 213666
Range status and errors
Selected range
Filename C:\EAC\Duo Confluencia - 100 Anos de ... Lecuona.wav
Peak level 100.0 %
Range quality 100.0 %
Test CRC 7748BAA4
Copy CRC 7748BAA4
Copy OK
No errors occurred
AccurateRip summary
Track 1 not present in database
Track 2 not present in database
Track 3 not present in database
Track 4 not present in database
Track 5 not present in database
Track 6 not present in database
Track 7 not present in database
Track 8 not present in database
Track 9 not present in database
Track 10 not present in database
Track 11 not present in database
Track 12 not present in database
None of the tracks are present in the AccurateRip database
End of status report
 
Содержание индексной карты (.CUE)
REM GENRE Ethnic
REM DATE 2009
REM DISCID 850B200C
REM COMMENT "ExactAudioCopy v0.99pb5"
PERFORMER "Duo Confluencia"
TITLE "100 Anos de ... Lecuona"
FILE "Duo Confluencia - 100 Anos de ... Lecuona.flac" WAVE
TRACK 01 AUDIO
TITLE "La Comparsa"
PERFORMER "Duo Confluencia"
INDEX 01 00:00:00
TRACK 02 AUDIO
TITLE "La Chancletera"
PERFORMER "Duo Confluencia"
INDEX 01 04:49:30
TRACK 03 AUDIO
TITLE "Andalucia"
PERFORMER "Duo Confluencia"
INDEX 01 09:51:22
TRACK 04 AUDIO
TITLE "Malaguena"
PERFORMER "Duo Confluencia"
INDEX 01 12:58:55
TRACK 05 AUDIO
TITLE "Damisela Encantadora"
PERFORMER "Duo Confluencia"
INDEX 01 16:51:32
TRACK 06 AUDIO
TITLE "Siempre En Mi Corazon"
PERFORMER "Duo Confluencia"
INDEX 01 20:00:00
TRACK 07 AUDIO
TITLE "Siboney"
PERFORMER "Duo Confluencia"
INDEX 01 23:28:27
TRACK 08 AUDIO
TITLE "Maria La O"
PERFORMER "Duo Confluencia"
INDEX 01 27:16:42
TRACK 09 AUDIO
TITLE "El Zun Zun"
PERFORMER "Duo Confluencia"
INDEX 01 30:48:30
TRACK 10 AUDIO
TITLE "Noche Azul"
PERFORMER "Duo Confluencia"
INDEX 01 35:20:60
TRACK 11 AUDIO
TITLE "Como Arrullo De Palmas"
PERFORMER "Duo Confluencia"
INDEX 01 39:51:60
TRACK 12 AUDIO
TITLE "Lamento Africano"
PERFORMER "Duo Confluencia"
INDEX 01 43:34:25
10:32
330
Нет комментариев. Ваш будет первым!