Поиск

(Latin Jazz, Salsa, World Fusion, Afro-Cuban) John Santos & The Machete Ensemble - Africa Vol. 1 - 1995, APE (image+.cue), lossless

Треклист:
John Santos & The Machete Ensemble / Africa Vol. 1
Жанр: Latin Jazz, Salsa, World Fusion, Afro-Cuban
Страна-производитель диска: USA
Год издания диска: 1995
Издатель (лейбл): EarthBeat!
Номер по каталогу: 9 42511-2
Аудиокодек: APE (*.ape)
Тип рипа: image+.cue
Битрейт аудио: lossless
Продолжительность: 00:39:17
Источник (релизер): сеть
Наличие сканов в содержимом раздачи: да
Треклист:
01. Un Viaje A Oriente [05:06]
02. Shadow [05:13]
03. Africa [05:37]
04. Oba Lube [04:24]
05. Medecine Man [05:35]
06. Asesu [13:22]
 
Лог создания рипа
Exact Audio Copy V1.0 beta 2 from 29. April 2011
EAC extraction logfile from 23. November 2011, 12:27
Jon Santos & The Machete Ensemble / Africa Volume 1
Used drive : ASUS DRW-22B2L Adapter: 0 ID: 1
Read mode : Secure
Utilize accurate stream : Yes
Defeat audio cache : Yes
Make use of C2 pointers : No
Read offset correction : 6
Overread into Lead-In and Lead-Out : No
Fill up missing offset samples with silence : Yes
Delete leading and trailing silent blocks : No
Null samples used in CRC calculations : Yes
Used interface : Native Win32 interface for Win NT & 2000
Used output format : Internal WAV Routines
Sample format : 44.100 Hz; 16 Bit; Stereo
TOC of the extracted CD
Track | Start | Length | Start sector | End sector
---------------------------------------------------------
1 | 0:00.32 | 5:09.18 | 32 | 23224
2 | 5:09.50 | 5:12.45 | 23225 | 46669
3 | 10:22.20 | 5:36.57 | 46670 | 71926
4 | 15:59.02 | 4:23.58 | 71927 | 91709
5 | 20:22.60 | 5:35.15 | 91710 | 116849
6 | 25:58.00 | 13:19.65 | 116850 | 176839
Range status and errors
Selected range
Filename D:\Donkey Files\John Santos & Machete - Africa Vol.1 (1988, Earthbeat!) [eac-ape-scans] byDrBull\Jon Santos & The Machete Ensemble - Africa Volume 1.wav
Peak level 100.0 %
Extraction speed 4.6 X
Range quality 99.9 %
Test CRC 1D725329
Copy CRC 1D725329
Copy OK
No errors occurred
AccurateRip summary
Track 1 accurately ripped (confidence 2) [0F2F08EF] (AR v1)
Track 2 accurately ripped (confidence 2) [D249DD4B] (AR v1)
Track 3 accurately ripped (confidence 2) [290971F6] (AR v1)
Track 4 accurately ripped (confidence 1) [3DA58646] (AR v1)
Track 5 not present in database
Track 6 not present in database
Some tracks could not be verified as accurate
End of status report
==== Log checksum FA24A5D7F6922C9005F68E98BA21F90AED91B97A3C4631F7167A468674DCF2BB ====
 
Содержание индексной карты (.CUE)
REM DISCID 38093506
REM COMMENT "ExactAudioCopy v1.0b2"
CATALOG 0075994251127
PERFORMER "Jon Santos & The Machete Ensemble"
TITLE "Africa Volume 1"
FILE "Jon Santos & The Machete Ensemble - Africa Volume 1.wav" WAVE
TRACK 01 AUDIO
TITLE "Un Viaje A Oriente"
PERFORMER "Jon Santos & The Machete Ensemble"
INDEX 00 00:00:00
INDEX 01 00:00:32
TRACK 02 AUDIO
TITLE "Shadow"
PERFORMER "Jon Santos & The Machete Ensemble"
INDEX 00 05:06:50
INDEX 01 05:09:50
TRACK 03 AUDIO
TITLE "Africa"
PERFORMER "Jon Santos & The Machete Ensemble"
INDEX 00 10:19:30
INDEX 01 10:22:20
TRACK 04 AUDIO
TITLE "Oba Lube"
PERFORMER "Jon Santos & The Machete Ensemble"
INDEX 00 15:56:68
INDEX 01 15:59:02
TRACK 05 AUDIO
TITLE "Medecine Man"
PERFORMER "Jon Santos & The Machete Ensemble"
INDEX 00 20:20:10
INDEX 01 20:22:60
TRACK 06 AUDIO
TITLE "Asesu"
PERFORMER "Jon Santos & The Machete Ensemble"
INDEX 00 25:55:60
INDEX 01 25:58:00
 
Состав
John Santos (vocals, drums, congas, bata, timbales, percussion, programming, drum programming); Armando Peraza (vocals, quinto, tumba); Rebeca Mauleуn (vocals, piano, synthesizer, percussion, programming, drum programming, background vocals); Willie Ludwig (vocals, background vocals); Vernon "Ice" Black (guitar); Anthony Blea (violin); Juan Ceballos (flute, piccolo, background vocals); Melecio Magdaluyo (flute, saxophone); John Calloway (flute, synthesizer, drums, programming); Bill Ortiz (trumpet); Dan Reagan, Jeff Cressman, Steve Turre, Wayne Wallace (trombone); David Belove (electric bass); Harold Muniz (congas, bata, percussion); Mario Abruzzo (congas, percussion); Orestes Vilatу (timbales, percussion, sound effects); Eric Rangel (percussion, background vocals); Claudia Gomez, Co Ro, Mario Cabrera, Carlitos Aldarondo, Taina Francнcua Rodrнguez, Ismael Rodrнguez, Jaime Velazquez Aguilar, Nina Rodrнguez, Guillermo Cespedes, Josй Luis Rebolar, Beatrice Godinez, Maria Rodriguez, Maribel Garcнa-Soto, Reynalda Nuсez, Sal Ferrъz, Jackeline Rago, Juliбn, Marнa Mбrquez, Raymond Davis (background vocals).
01:36
278
Нет комментариев. Ваш будет первым!