Поиск

(Latin Jazz, Salsa) VA - Legends Of Latin Music - 1996, FLAC (tracks+.cue) lossless

Треклист:
Various Artists - Legends Of Latin Music
Жанр: Latin Jazz, Salsa
Страна-производитель диска: Germany
Год издания диска: 1996
Издатель (лейбл): Delta
Номер по каталогу: 12916
Аудио кодек: FLAC (*.flac)
Тип рипа: tracks+.cue
Битрейт аудио: lossless
Продолжительность: 37:20
Наличие сканов в содержимом раздачи: yes
Источник (релизер): nnm, thanks cruwolf
Треклист / Исполнители:
1. Relax and Mambo - Machito
2. Dile Que Por Mi No Tema - Celia Cruz
3. Que Problema - Joe Cuba Sextet
4. Camina y Ven - La Lupe
5. Guantanamera - Machito
6. Kon Kun Mambo - Miguelito Valdes
7. La Plena Bomba Me Llaman - Celia Cruz
8. Lindo Yambu - Eddie Palmieri
9. Guajira - Willie Bobo
10. Cha Cha Chick - Tito Puente, Woody Herman
11. Odiame - La Lupe
 
Лог ЕАС
Exact Audio Copy V0.99 prebeta 5 from 4. May 2009
EAC extraction logfile from 14. October 2010, 11:43
Various / Legends Of Latin Music
Used drive : HL-DT-STDVD-RAM GH22NP20 Adapter: 1 ID: 1
Read mode : Secure
Utilize accurate stream : Yes
Defeat audio cache : Yes
Make use of C2 pointers : No
Read offset correction : 102
Overread into Lead-In and Lead-Out : No
Fill up missing offset samples with silence : Yes
Delete leading and trailing silent blocks : No
Null samples used in CRC calculations : Yes
Used interface : Installed external ASPI interface
Gap handling : Appended to previous track
Used output format : User Defined Encoder
Selected bitrate : 1024 kBit/s
Quality : High
Add ID3 tag : No
Command line compressor : C:\Program Files\Exact Audio Copy\FLAC\FLAC.EXE
Additional command line options : -5 -V -T "ARTIST=%a" -T "TITLE=%t" -T "ALBUM=%g" -T "DATE=%y" -T "TRACKNUMBER=%n" -T "GENRE=%m" -T "COMMENT=%e" %s -o %d
TOC of the extracted CD
Track | Start | Length | Start sector | End sector
---------------------------------------------------------
1 | 0:00.00 | 3:12.52 | 0 | 14451
2 | 3:12.52 | 2:36.58 | 14452 | 26209
3 | 5:49.35 | 3:59.12 | 26210 | 44146
4 | 9:48.47 | 3:28.65 | 44147 | 59811
5 | 13:17.37 | 3:26.40 | 59812 | 75301
6 | 16:44.02 | 2:55.38 | 75302 | 88464
7 | 19:39.40 | 2:49.37 | 88465 | 101176
8 | 22:29.02 | 6:28.73 | 101177 | 130349
9 | 28:58.00 | 2:53.40 | 130350 | 143364
10 | 31:51.40 | 3:00.07 | 143365 | 156871
11 | 34:51.47 | 2:33.45 | 156872 | 168391
Track 1
Filename C:\New Folder\01. Machito - Relax & Mambo.wav
Pre-gap length 0:00:02.00
Peak level 95.2 %
Track quality 100.0 %
Test CRC 45934141
Copy CRC 45934141
Accurately ripped (confidence 1) [7BB65F34]
Copy OK
Track 2
Filename C:\New Folder\02. Celia Cruz - Dile Que Por Mi No Tema.wav
Pre-gap length 0:00:01.44
Peak level 99.9 %
Track quality 100.0 %
Test CRC 3266192E
Copy CRC 3266192E
Accurately ripped (confidence 1) [6010613F]
Copy OK
Track 3
Filename C:\New Folder\03. Joe Cuba Sextet - Que Problema.wav
Pre-gap length 0:00:01.84
Peak level 90.5 %
Track quality 100.0 %
Test CRC 9F91AF4E
Copy CRC 9F91AF4E
Accurately ripped (confidence 1) [DC4BEAD9]
Copy OK
Track 4
Filename C:\New Folder\04. La Lupe - Camina Y Ven.wav
Pre-gap length 0:00:01.82
Peak level 89.7 %
Track quality 99.9 %
Test CRC 2C58323C
Copy CRC 2C58323C
Accurately ripped (confidence 1) [29FE060C]
Copy OK
Track 5
Filename C:\New Folder\05. Machito - Guantanamera.wav
Pre-gap length 0:00:01.88
Peak level 89.5 %
Track quality 99.9 %
Test CRC 4ADCEC08
Copy CRC 4ADCEC08
Accurately ripped (confidence 1) [FC6C261C]
Copy OK
Track 6
Filename C:\New Folder\06. Miguelito Valdes - Kon-Kun-Mambo.wav
Pre-gap length 0:00:01.62
Peak level 100.0 %
Track quality 100.0 %
Test CRC 2D5A231C
Copy CRC 2D5A231C
Accurately ripped (confidence 1) [E4D8CFC8]
Copy OK
Track 7
Filename C:\New Folder\07. Celia Cruz - La Plena Bomba Me Llaman.wav
Pre-gap length 0:00:02.02
Peak level 100.0 %
Track quality 100.0 %
Test CRC 77290EB5
Copy CRC 77290EB5
Accurately ripped (confidence 1) [0DC423B3]
Copy OK
Track 8
Filename C:\New Folder\08. Eddie Palmieri - Lindo Yambu.wav
Pre-gap length 0:00:01.52
Peak level 90.6 %
Track quality 100.0 %
Test CRC 05BCDD59
Copy CRC 05BCDD59
Accurately ripped (confidence 1) [089928EE]
Copy OK
Track 9
Filename C:\New Folder\09. Willie Bobo - Guajira.wav
Pre-gap length 0:00:02.02
Peak level 85.1 %
Track quality 100.0 %
Test CRC CA139ABF
Copy CRC CA139ABF
Accurately ripped (confidence 1) [E4A551AB]
Copy OK
Track 10
Filename C:\New Folder\10. Woody Herman & Tito Puente - Cha-Cha Chick.wav
Pre-gap length 0:00:01.25
Peak level 79.5 %
Track quality 100.0 %
Test CRC 025236D9
Copy CRC 025236D9
Accurately ripped (confidence 1) [C598CD4B]
Copy OK
Track 11
Filename C:\New Folder\11. La Lupe - Odiame.wav
Pre-gap length 0:00:01.66
Peak level 100.0 %
Track quality 100.0 %
Test CRC 1099B7B3
Copy CRC 1099B7B3
Accurately ripped (confidence 1) [A313AE3E]
Copy OK
All tracks accurately ripped
No errors occurred
End of status report
 
Содержание индексной карты (.CUE)
REM GENRE Latin
REM DATE 1996
REM DISCID 8408C50B
REM COMMENT "ExactAudioCopy v0.99pb5"
PERFORMER "Various"
TITLE "Legends Of Latin Music"
FILE "01. Machito - Relax & Mambo.wav" WAVE
TRACK 01 AUDIO
TITLE "Relax & Mambo"
PERFORMER "Machito"
INDEX 01 00:00:00
TRACK 02 AUDIO
TITLE "Dile Que Por Mi No Tema"
PERFORMER "Celia Cruz"
INDEX 00 03:11:19
FILE "02. Celia Cruz - Dile Que Por Mi No Tema.wav" WAVE
INDEX 01 00:00:00
TRACK 03 AUDIO
TITLE "Que Problema"
PERFORMER "Joe Cuba Sextet"
INDEX 00 02:34:70
FILE "03. Joe Cuba Sextet - Que Problema.wav" WAVE
INDEX 01 00:00:00
TRACK 04 AUDIO
TITLE "Camina Y Ven"
PERFORMER "La Lupe"
INDEX 00 03:57:25
FILE "04. La Lupe - Camina Y Ven.wav" WAVE
INDEX 01 00:00:00
TRACK 05 AUDIO
TITLE "Guantanamera"
PERFORMER "Machito"
INDEX 00 03:26:74
FILE "05. Machito - Guantanamera.wav" WAVE
INDEX 01 00:00:00
TRACK 06 AUDIO
TITLE "Kon-Kun-Mambo"
PERFORMER "Miguelito Valdes"
INDEX 00 03:24:68
FILE "06. Miguelito Valdes - Kon-Kun-Mambo.wav" WAVE
INDEX 01 00:00:00
TRACK 07 AUDIO
TITLE "La Plena Bomba Me Llaman"
PERFORMER "Celia Cruz"
INDEX 00 02:53:36
FILE "07. Celia Cruz - La Plena Bomba Me Llaman.wav" WAVE
INDEX 01 00:00:00
TRACK 08 AUDIO
TITLE "Lindo Yambu"
PERFORMER "Eddie Palmieri"
INDEX 00 02:47:73
FILE "08. Eddie Palmieri - Lindo Yambu.wav" WAVE
INDEX 01 00:00:00
TRACK 09 AUDIO
TITLE "Guajira"
PERFORMER "Willie Bobo"
INDEX 00 06:26:71
FILE "09. Willie Bobo - Guajira.wav" WAVE
INDEX 01 00:00:00
TRACK 10 AUDIO
TITLE "Cha-Cha Chick"
PERFORMER "Woody Herman & Tito Puente"
INDEX 00 02:52:21
FILE "10. Woody Herman & Tito Puente - Cha-Cha Chick.wav" WAVE
INDEX 01 00:00:00
TRACK 11 AUDIO
TITLE "Odiame"
PERFORMER "La Lupe"
INDEX 00 02:58:32
FILE "11. La Lupe - Odiame.wav" WAVE
INDEX 01 00:00:00
19:13
265
Нет комментариев. Ваш будет первым!