Поиск

(Latin Jazz, Salsa) New Swing Sextet — Back On The Streets — 2008, FLAC (image+.cue) lossless

Треклист:
New Swing Sextet — Back On The Streets
Жанр: Latin Jazz, Salsa
Страна-производитель диска: USA
Год издания диска: 2008
Лейбл: Fania
Номер по каталогу: 773 130 400-2
Аудио кодек: FLAC (*.flac)
Тип рипа: image+.cue
Битрейт аудио: lossless
Продолжительность: 58:55
Риппер: barin99
Сканы: 300 dpi
Треклист:
01. Che Che (5:25)
02. Bobo Tu Te Quedaras (5:36)
03. El Raton (3:50)
04. Sarondonga (4:02)
05. En El Balcon (7:01)
06. The Monster (5:01)
07. Amor Jibaro (6:16)
08. Ay Carino (4:37)
09. El Bongo (5:25)
10. Flight (4:12)
11. El Tiroteo (3:21)
12. Monta Mi Caballito (4:10)
 
Состав
Aurelio “Yeyo” Salgado — piano
Edwin Muñiz — percussion
Speedy Gonzalez — vocals
Jesus “Chuito” Santiago — timbales, flute, saxophone and vocals
Henry “Pachi” Algerin — congas
Angel Rivera — congas
Luis Bonilla — congas
+
Pete Ortiz — lead vocals
Angel Canales — lead vocals
Ray Jay — lead vocals
Frankie Vasquez — lead vocals
Leo Gonzalez — lead vocals
Alberto Diaz — lead vocals
Ralph Hodge — piano
Conal Fowkes — piano
Artie Webb — flute
David Fonseca — bongos
Mike Ocasio — bongos
Angel “Soupy” Zambrana — trap drums
Glen Lowe — trap drums
Jae Armando — bass
Luis Quiñones — bass
Gus Bratos — guitar
Charlie “el cocinero” Alletto — Guitar
Victor Padilla — timbales
Angel Rodriguez — latin percussion
John Gonzalez — hand percussion
 
Лог создания рипа
Exact Audio Copy V0.99 prebeta 5 from 4. May 2009
EAC extraction logfile from 15. October 2010, 19:07
New Swing Sextet / Back on the Streets
Used drive : TSSTcorpDVD+-RW TS-U633A Adapter: 0 ID: 1
Read mode : Secure
Utilize accurate stream : Yes
Defeat audio cache : Yes
Make use of C2 pointers : No
Read offset correction : 6
Overread into Lead-In and Lead-Out : No
Fill up missing offset samples with silence : Yes
Delete leading and trailing silent blocks : No
Null samples used in CRC calculations : Yes
Used interface : Native Win32 interface for Win NT & 2000
Used output format : Internal WAV Routines
Sample format : 44.100 Hz; 16 Bit; Stereo
TOC of the extracted CD
Track | Start | Length | Start sector | End sector
---------------------------------------------------------
1 | 0:00.00 | 5:24.58 | 0 | 24357
2 | 5:24.58 | 5:35.60 | 24358 | 49542
3 | 11:00.43 | 3:49.39 | 49543 | 66756
4 | 14:50.07 | 4:02.14 | 66757 | 84920
5 | 18:52.21 | 7:00.61 | 84921 | 116481
6 | 25:53.07 | 5:01.06 | 116482 | 139062
7 | 30:54.13 | 6:15.72 | 139063 | 167259
8 | 37:10.10 | 4:36.60 | 167260 | 188019
9 | 41:46.70 | 5:25.04 | 188020 | 212398
10 | 47:11.74 | 4:12.01 | 212399 | 231299
11 | 51:24.00 | 3:20.51 | 231300 | 246350
12 | 54:44.51 | 4:09.65 | 246351 | 265090
Range status and errors
Selected range
Filename C:\_Arc\EAC_Out\New Swing Sextet - Back on the Streets\New Swing Sextet - Back on the Streets.wav
Peak level 100.0 %
Range quality 100.0 %
Copy CRC 90FB9FF4
Copy OK
No errors occurred
AccurateRip summary
Track 1 accurately ripped (confidence 3) [19021E5E]
Track 2 accurately ripped (confidence 3) [26BCC375]
Track 3 accurately ripped (confidence 3) [9E5CF83C]
Track 4 accurately ripped (confidence 3) [09E67D55]
Track 5 accurately ripped (confidence 3) [ABBBA213]
Track 6 accurately ripped (confidence 3) [B1963B27]
Track 7 accurately ripped (confidence 3) [9FB51E1B]
Track 8 accurately ripped (confidence 3) [23F8E206]
Track 9 accurately ripped (confidence 3) [B45F6890]
Track 10 accurately ripped (confidence 3) [C1644CE2]
Track 11 accurately ripped (confidence 3) [98C8B227]
Track 12 accurately ripped (confidence 3) [0179914D]
All tracks accurately ripped
End of status report
   :arrow: Мои раздачи на трекере
19:04
250
Нет комментариев. Ваш будет первым!