Поиск

(Latin Jazz, Salsa) Larry Harlow's Latin Jazz Encounter - Live at Birdland - 2003, FLAC (tracks+.cue), lossless

(Latin Jazz, Salsa) Larry Harlow's Latin Jazz Encounter - Live at Birdland - 2003, FLAC (tracks+.cue), lossless
Треклист:
Larry Harlow's Latin Jazz Encounter - Live at Birdland
Жанр: Latin Jazz, Salsa
Страна-производитель диска: США
Год издания: 2003
Издатель (лейбл): Latin Cool
Номер по каталогу: LCR-1001
Аудиокодек: FLAC (*.flac)
Тип рипа: tracks+.cue
Битрейт аудио: lossless
Продолжительность: 62:36
Источник (релизер): stomp (what)
Наличие сканов в содержимом раздачи: нет
Треклист:
01. Introduction (0:19)
02. Rumbambola (7:58)
03. Fried Neckbones (9:18)
04. Dedication to Tito (1:21)
05. Philadelphia Mambo (5:39)
06. Autumn Leaves (10:22)
07. Pancho Piloncho (7:01)
08. Rainbow People (6:13)
09. Boperation (7:33)
10. La Cartera (6:52)
Состав:
Larry Harlow - keyboards
Eddie "Guagua" Rivera - bass
Chembo Corniel - congas
Mac Gollehon - trumpet
Ronnie Cuber - baritone saxophone, flute
Bobby Sanabria - drums
 
Лог создания рипа
X Lossless Decoder version 20130720 (144.0)
XLD extraction logfile from 2013-10-28 08:17:33 -0400
Larry Harlow / Live at Birdland
Used drive : MATSHITA DVD-R UJ-857E (revision ZB0E)
Media type : Pressed CD
Ripper mode : XLD Secure Ripper
Disable audio cache : OK for the drive with a cache less than 1375KiB
Make use of C2 pointers : NO
Read offset correction : 102
Max retry count : 100
Gap status : Analyzed, Appended (except HTOA)
TOC of the extracted CD
Track | Start | Length | Start sector | End sector
---------------------------------------------------------
1 | 00:00:00 | 00:18:62 | 0 | 1411
2 | 00:18:62 | 07:57:60 | 1412 | 37246
3 | 08:16:47 | 09:17:38 | 37247 | 79059
4 | 17:34:10 | 01:20:65 | 79060 | 85124
5 | 18:55:00 | 05:39:20 | 85125 | 110569
6 | 24:34:20 | 10:22:12 | 110570 | 157231
7 | 34:56:32 | 07:01:20 | 157232 | 188826
8 | 41:57:52 | 06:13:08 | 188827 | 216809
9 | 48:10:60 | 07:32:57 | 216810 | 250766
10 | 55:43:42 | 06:52:10 | 250767 | 281676
AccurateRip Summary (DiscID: 00157ed7-00b25a32-8b0eab0a)
Track 01 : OK (v1, confidence 1/1)
Track 02 : OK (v1, confidence 1/1)
Track 03 : OK (v1, confidence 1/1)
Track 04 : OK (v1, confidence 1/1)
Track 05 : OK (v1, confidence 1/1)
Track 06 : OK (v1, confidence 1/1)
Track 07 : OK (v1, confidence 1/1)
Track 08 : OK (v1, confidence 1/1)
Track 09 : OK (v1, confidence 1/1)
Track 10 : OK (v1, confidence 1/1)
->All tracks accurately ripped.
All Tracks
Album gain : -9.22 dB
Peak : 1.000000
Statistics
Read error : 0
Jitter error (maybe fixed) : 0
Retry sector count : 0
Damaged sector count : 0
Track 01
Filename : /Rips/01 - Introduction.flac
Pre-gap length : 00:02:00
Track gain : -4.27 dB
Peak : 1.000000
CRC32 hash (test run) : 1237C03E
CRC32 hash : 1237C03E
CRC32 hash (skip zero) : B2FA86EB
AccurateRip v1 signature : 6ECB68A8
AccurateRip v2 signature : B9BBDBBA
->Accurately ripped (v1, confidence 1/1)
Statistics
Read error : 0
Jitter error (maybe fixed) : 0
Retry sector count : 0
Damaged sector count : 0
Track 02
Filename : /Rips/02 - Rumbambola.flac
Track gain : -8.13 dB
Peak : 1.000000
CRC32 hash (test run) : 8E4E5BE8
CRC32 hash : 8E4E5BE8
CRC32 hash (skip zero) : A6AEE395
AccurateRip v1 signature : 403C178E
AccurateRip v2 signature : EBB32675
->Accurately ripped (v1, confidence 1/1)
Statistics
Read error : 0
Jitter error (maybe fixed) : 0
Retry sector count : 0
Damaged sector count : 0
Track 03
Filename : /Rips/03 - Fried Neckbones.flac
Track gain : -8.58 dB
Peak : 0.999969
CRC32 hash (test run) : 0FE93F4A
CRC32 hash : 0FE93F4A
CRC32 hash (skip zero) : B6E94B11
AccurateRip v1 signature : 1EC5A15A
AccurateRip v2 signature : 35761ABE
->Accurately ripped (v1, confidence 1/1)
Statistics
Read error : 0
Jitter error (maybe fixed) : 0
Retry sector count : 0
Damaged sector count : 0
Track 04
Filename : /Rips/04 - Dedication to Tito.flac
Track gain : -2.62 dB
Peak : 1.000000
CRC32 hash (test run) : 2CA937ED
CRC32 hash : 2CA937ED
CRC32 hash (skip zero) : 0EE40ACA
AccurateRip v1 signature : 1B7C2371
AccurateRip v2 signature : 09D8EFCA
->Accurately ripped (v1, confidence 1/1)
Statistics
Read error : 0
Jitter error (maybe fixed) : 0
Retry sector count : 0
Damaged sector count : 0
Track 05
Filename : /Rips/05 - Philadelphia Mambo.flac
Track gain : -10.40 dB
Peak : 1.000000
CRC32 hash (test run) : 42E14C87
CRC32 hash : 42E14C87
CRC32 hash (skip zero) : 2D145D23
AccurateRip v1 signature : 01A078FF
AccurateRip v2 signature : 31FE3569
->Accurately ripped (v1, confidence 1/1)
Statistics
Read error : 0
Jitter error (maybe fixed) : 0
Retry sector count : 0
Damaged sector count : 0
Track 06
Filename : /Rips/06 - Autumn Leaves.flac
Track gain : -8.67 dB
Peak : 1.000000
CRC32 hash (test run) : 99CE251A
CRC32 hash : 99CE251A
CRC32 hash (skip zero) : D702B29C
AccurateRip v1 signature : 6591FA8B
AccurateRip v2 signature : 18C959B0
->Accurately ripped (v1, confidence 1/1)
Statistics
Read error : 0
Jitter error (maybe fixed) : 0
Retry sector count : 0
Damaged sector count : 0
Track 07
Filename : /Rips/07 - Pancho Piloncho.flac
Track gain : -9.90 dB
Peak : 1.000000
CRC32 hash (test run) : DB873DA6
CRC32 hash : DB873DA6
CRC32 hash (skip zero) : 25D4EADD
AccurateRip v1 signature : BE3ABB00
AccurateRip v2 signature : A9C2FCFF
->Accurately ripped (v1, confidence 1/1)
Statistics
Read error : 0
Jitter error (maybe fixed) : 0
Retry sector count : 0
Damaged sector count : 0
Track 08
Filename : /Rips/08 - Rainbow People.flac
Track gain : -9.78 dB
Peak : 1.000000
CRC32 hash (test run) : 4695A066
CRC32 hash : 4695A066
CRC32 hash (skip zero) : 485706E6
AccurateRip v1 signature : 731C5A28
AccurateRip v2 signature : BB1447BC
->Accurately ripped (v1, confidence 1/1)
Statistics
Read error : 0
Jitter error (maybe fixed) : 0
Retry sector count : 0
Damaged sector count : 0
Track 09
Filename : /Rips/09 - Boperation.flac
Track gain : -8.41 dB
Peak : 1.000000
CRC32 hash (test run) : 4410475B
CRC32 hash : 4410475B
CRC32 hash (skip zero) : 3919D1A7
AccurateRip v1 signature : E9DFABCC
AccurateRip v2 signature : 6F93080E
->Accurately ripped (v1, confidence 1/1)
Statistics
Read error : 0
Jitter error (maybe fixed) : 0
Retry sector count : 0
Damaged sector count : 0
Track 10
Filename : /Rips/10 - La Cartera.flac
Track gain : -9.75 dB
Peak : 0.999969
CRC32 hash (test run) : F147A639
CRC32 hash : F147A639
CRC32 hash (skip zero) : 9AA22806
AccurateRip v1 signature : D52AB915
AccurateRip v2 signature : FF1D1B5B
->Accurately ripped (v1, confidence 1/1)
Statistics
Read error : 0
Jitter error (maybe fixed) : 0
Retry sector count : 0
Damaged sector count : 0
No errors occurred
End of status report
 
Содержание индексной карты (.CUE)
TITLE "Live at Birdland"
PERFORMER "Larry Harlow's Latin Jazz Encounter"
REM GENRE "Jazz"
REM DATE "2003"
REM DISCID 8B0EAB0A
REM REPLAYGAIN_ALBUM_GAIN -9.22 dB
REM REPLAYGAIN_ALBUM_PEAK 1.000000
FILE "01 - Introduction.flac" WAVE
TRACK 01 AUDIO
TITLE "Introduction"
REM REPLAYGAIN_TRACK_GAIN -4.27 dB
REM REPLAYGAIN_TRACK_PEAK 1.000000
INDEX 01 00:00:00
FILE "02 - Rumbambola.flac" WAVE
TRACK 02 AUDIO
TITLE "Rumbambola"
REM REPLAYGAIN_TRACK_GAIN -8.13 dB
REM REPLAYGAIN_TRACK_PEAK 1.000000
INDEX 01 00:00:00
FILE "03 - Fried Neckbones.flac" WAVE
TRACK 03 AUDIO
TITLE "Fried Neckbones"
REM REPLAYGAIN_TRACK_GAIN -8.58 dB
REM REPLAYGAIN_TRACK_PEAK 0.999969
INDEX 01 00:00:00
FILE "04 - Dedication to Tito.flac" WAVE
TRACK 04 AUDIO
TITLE "Dedication to Tito"
REM REPLAYGAIN_TRACK_GAIN -2.62 dB
REM REPLAYGAIN_TRACK_PEAK 1.000000
INDEX 01 00:00:00
FILE "05 - Philadelphia Mambo.flac" WAVE
TRACK 05 AUDIO
TITLE "Philadelphia Mambo"
REM REPLAYGAIN_TRACK_GAIN -10.40 dB
REM REPLAYGAIN_TRACK_PEAK 1.000000
INDEX 01 00:00:00
FILE "06 - Autumn Leaves.flac" WAVE
TRACK 06 AUDIO
TITLE "Autumn Leaves"
REM REPLAYGAIN_TRACK_GAIN -8.67 dB
REM REPLAYGAIN_TRACK_PEAK 1.000000
INDEX 01 00:00:00
FILE "07 - Pancho Piloncho.flac" WAVE
TRACK 07 AUDIO
TITLE "Pancho Piloncho"
REM REPLAYGAIN_TRACK_GAIN -9.90 dB
REM REPLAYGAIN_TRACK_PEAK 1.000000
INDEX 01 00:00:00
FILE "08 - Rainbow People.flac" WAVE
TRACK 08 AUDIO
TITLE "Rainbow People"
REM REPLAYGAIN_TRACK_GAIN -9.78 dB
REM REPLAYGAIN_TRACK_PEAK 1.000000
INDEX 01 00:00:00
FILE "09 - Boperation.flac" WAVE
TRACK 09 AUDIO
TITLE "Boperation"
REM REPLAYGAIN_TRACK_GAIN -8.41 dB
REM REPLAYGAIN_TRACK_PEAK 1.000000
INDEX 01 00:00:00
FILE "10 - La Cartera.flac" WAVE
TRACK 10 AUDIO
TITLE "La Cartera"
REM REPLAYGAIN_TRACK_GAIN -9.75 dB
REM REPLAYGAIN_TRACK_PEAK 0.999969
INDEX 01 00:00:00
 
Отчет CUETools
[CUETools log; Date: 28.10.2013 23:37:39; Version: 2.1.4]
[CTDB TOCID: EPCMNCuKTuCtaUKNSyVfCzfGCTA-] disk not present in database.
[AccurateRip ID: 00157ed7-00b25a32-8b0eab0a] found.
Track [ CRC | V2 ] Status
01 [6ecb68a8|b9bbdbba] (1+0/1) Accurately ripped
02 [403c178e|ebb32675] (1+0/1) Accurately ripped
03 [1ec5a15a|35761abe] (1+0/1) Accurately ripped
04 [1b7c2371|09d8efca] (1+0/1) Accurately ripped
05 [01a078ff|31fe3569] (1+0/1) Accurately ripped
06 [6591fa8b|18c959b0] (1+0/1) Accurately ripped
07 [be3abb00|a9c2fcff] (1+0/1) Accurately ripped
08 [731c5a28|bb1447bc] (1+0/1) Accurately ripped
09 [e9dfabcc|6f93080e] (1+0/1) Accurately ripped
10 [d52ab915|ff1d1b5b] (1+0/1) Accurately ripped
Track Peak [ CRC32 ] [W/O NULL]
-- 100,0 [00570688] [5F4137CE]
01 100,0 [1237C03E] [B2FA86EB]
02 100,0 [8E4E5BE8] [A6AEE395]
03 100,0 [0FE93F4A] [B6E94B11]
04 100,0 [2CA937ED] [0EE40ACA]
05 100,0 [42E14C87] [2D145D23]
06 100,0 [99CE251A] [D702B29C]
07 100,0 [DB873DA6] [25D4EADD]
08 100,0 [4695A066] [485706E6]
09 100,0 [4410475B] [3919D1A7]
10 100,0 [F147A639] [9AA22806]
 
Review by Jacira Castro
What a group! Beginning with the legendary pianist, the original Fania All Star, Larry Harlow on keyboards, the dynamic Bobby Sanabria on drums, the best bass player in the world, Eddie "Guagua" Rivera, the incredibly talented Ronnie Cuber on baritone sax and flute, the amazing Mac Gollehon on trumpet, and the phenomenal Chembo Corniel on congas and percussion ...this group kicks it into high gear! They all get to strut their stuff with the first number, Rumbambola.
Then they take off with a sultry version of Willie Bobo's Fried Neckbones. Now my 13 year old son doesn't know much about Latin Jazz, but this number had him singing along with the chorus and smiling from ear to ear. What a fun song, and what a trumpet solo...wow! The audience can be heard participating in the background, and Larry brings it all together with his inspired piano rifts.
Larry contributes more jammin' piano in the Philadelphia Mambo, dedicated to his friend and mentor, Tito Puente.
But the great piano intro in Autumn Leaves flows into a baritone sax solo that makes you want to turn the lights down low, light a candle and slip into something more comfortable.
Then comes Pancho Piloncho, a Larry Harlow original tune that was first recorded on an album he did for Nippon Fonogram records in 1975 called Belmonte y su Sexteto (he was signed to Fania back then so couldn't do it under his own name!). This tune is where Larry really shows off his piano skills. But since this is Latin Jazz, and like Larry says, "You can do anything you want to", along comes Mac Gollehon with his trumpet, accompanied by Ronnie Cuber with his charanga style flute and the song really takes off!
The highlight of this album is a new interpretation of the Larry Harlow classic, La Cartera (written by Arsenio Rodríguez) with Bomba rhythms! You have to hear it to believe it!
For those of you who love Latin Jazz, buying this album is a no-brainer. For those of you who aren't so sure you like Latin Jazz, this album will convince you that you do! And for those of you who have never listened to Latin Jazz, this is a great introduction!
Highly recommended!
13:43
275
Нет комментариев. Ваш будет первым!