Поиск

(Latin Jazz, Post-Bop, Mainstream Jazz) Hendrik Meurkens Quartet - A Night In Jakarta - 2010, FLAC (tracks+.cue), lossless

Треклист:
•Hendrik Meurkens Quartet - A Night In Jakarta•
Жанр: Latin Jazz, Post-Bop, Mainstream Jazz
Страна-производитель диска: Germany
Год издания: 2010
Издатель (лейбл): Jawo Records
Номер по каталогу: JAW004
Аудиокодек: FLAC (*.flac)
Тип рипа: tracks+.cue
Битрейт аудио: lossless
Продолжительность: 00:53:06
Источник (релизер): Рип с диска.
Наличие сканов в содержимом раздачи: да
Треклист:
01. A Night in Jakarta [06:01]
02. A Ilha [05:36]
03. Choronto [05:05]
04. They Can't Take That Away From Me [04:41]
05. September Choro [04:20]
06. The Winter Sea [06:21]
07. Bolero Para Paquito [06:36]
08. Choro no.8 [02:52]
09. Prague In March [06:51]
10. Hereґs That Rainy Day [04:39]
Personnel:
Hendrik Meurkens - harmonica, vibes
Misha Tsiganov - p, fender rhodes
Gustavo Amarante - b
Adriano Santos - dr, pandeiro, perc.
 
Лог создания рипа
Exact Audio Copy V1.0 beta 3 from 29. August 2011
Отчёт EAC об извлечении, выполненном 7. мая 2012, 16:58
Hendrik Meurkens / A Night In Jakarta
Дисковод: TSSTcorpCDDVDW SH-S223C Adapter: 5 ID: 0
Режим чтения : Достоверность
Использование точного потока : Да
Отключение кэша аудио : Да
Использование указателей C2 : Нет
Коррекция смещения при чтении : 697
Способность читать области Lead-in и Lead-out : Нет
Заполнение пропущенных сэмплов тишиной : Да
Удаление блоков с тишиной в начале и конце : Нет
При вычислениях CRC использовались нулевые сэмплы : Да
Интерфейс : Встроенный Win32-интерфейс для Win NT/2000
Обработка зазоров : Добавлено к предыдущему треку
Выходной формат : Пользовательский кодировщик
Выбранный битрейт : 128 kBit/s
Качество : Высокий
Добавление ID3-тега : Нет
Утилита сжатия : C:\Program Files\Exact Audio Copy\Flac\flac.exe
Дополнительные параметры : -V -8 -T "Genre=%genre%" -T "Artist=%artist%" -T "Title=%title%" -T "Album=%albumtitle%" -T "Date=%year%" -T "Tracknumber=%tracknr%" -T "Comment=%comment%" %source%
TOC извлечённого CD
Трек | Старт | Длительность | Начальный сектор | Конечный сектор
---------------------------------------------------------------------
1 | 0:00.00 | 6:03.38 | 0 | 27262
2 | 6:03.38 | 5:37.73 | 27263 | 52610
3 | 11:41.36 | 5:07.38 | 52611 | 75673
4 | 16:48.74 | 4:43.05 | 75674 | 96903
5 | 21:32.04 | 4:22.01 | 96904 | 116554
6 | 25:54.05 | 6:23.21 | 116555 | 145300
7 | 32:17.26 | 6:38.44 | 145301 | 175194
8 | 38:55.70 | 2:54.42 | 175195 | 188286
9 | 41:50.37 | 6:53.06 | 188287 | 219267
10 | 48:43.43 | 4:39.50 | 219268 | 240242
Трек 1
Имя файла E:\Ozifra\2010.Hendrik Meurkens Quartet - A Night In Jakarta\01. A Night in Jakarta.wav
Длина предзазора 0:00:02.00
Пиковый уровень 97.7 %
Скорость извлечения 2.0 X
Качество трека 99.9 %
CRC теста 7F583C74
CRC копии 7F583C74
Трек не обнаружен в базе AccurateRip
Копирование... OK
Трек 2
Имя файла E:\Ozifra\2010.Hendrik Meurkens Quartet - A Night In Jakarta\02. A Ilha.wav
Длина предзазора 0:00:02.00
Пиковый уровень 97.7 %
Скорость извлечения 2.2 X
Качество трека 99.9 %
CRC теста F7B67FB7
CRC копии F7B67FB7
Трек не обнаружен в базе AccurateRip
Копирование... OK
Трек 3
Имя файла E:\Ozifra\2010.Hendrik Meurkens Quartet - A Night In Jakarta\03. Choronto.wav
Длина предзазора 0:00:02.00
Пиковый уровень 97.7 %
Скорость извлечения 2.6 X
Качество трека 100.0 %
CRC теста 786B679F
CRC копии 786B679F
Трек не обнаружен в базе AccurateRip
Копирование... OK
Трек 4
Имя файла E:\Ozifra\2010.Hendrik Meurkens Quartet - A Night In Jakarta\04. They Can't Take That Away From Me.wav
Длина предзазора 0:00:02.00
Пиковый уровень 97.7 %
Скорость извлечения 2.8 X
Качество трека 100.0 %
CRC теста E5B509E9
CRC копии E5B509E9
Трек не обнаружен в базе AccurateRip
Копирование... OK
Трек 5
Имя файла E:\Ozifra\2010.Hendrik Meurkens Quartet - A Night In Jakarta\05. September Choro.wav
Длина предзазора 0:00:02.00
Пиковый уровень 97.7 %
Скорость извлечения 2.9 X
Качество трека 100.0 %
CRC теста 8B0067AB
CRC копии 8B0067AB
Трек не обнаружен в базе AccurateRip
Копирование... OK
Трек 6
Имя файла E:\Ozifra\2010.Hendrik Meurkens Quartet - A Night In Jakarta\06. The Winter Sea.wav
Длина предзазора 0:00:02.00
Пиковый уровень 97.7 %
Скорость извлечения 3.3 X
Качество трека 100.0 %
CRC теста FB081BC5
CRC копии FB081BC5
Трек не обнаружен в базе AccurateRip
Копирование... OK
Трек 7
Имя файла E:\Ozifra\2010.Hendrik Meurkens Quartet - A Night In Jakarta\07. Bolero Para Paquito.wav
Длина предзазора 0:00:02.00
Пиковый уровень 97.7 %
Скорость извлечения 3.5 X
Качество трека 100.0 %
CRC теста 219FDE7F
CRC копии 219FDE7F
Трек не обнаружен в базе AccurateRip
Копирование... OK
Трек 8
Имя файла E:\Ozifra\2010.Hendrik Meurkens Quartet - A Night In Jakarta\08. Choro no.8.wav
Длина предзазора 0:00:02.00
Пиковый уровень 97.7 %
Скорость извлечения 3.2 X
Качество трека 100.0 %
CRC теста C778301C
CRC копии C778301C
Трек не обнаружен в базе AccurateRip
Копирование... OK
Трек 9
Имя файла E:\Ozifra\2010.Hendrik Meurkens Quartet - A Night In Jakarta\09. Prague In March.wav
Длина предзазора 0:00:02.00
Пиковый уровень 97.7 %
Скорость извлечения 3.8 X
Качество трека 100.0 %
CRC теста C399D71C
CRC копии C399D71C
Трек не обнаружен в базе AccurateRip
Копирование... OK
Трек 10
Имя файла E:\Ozifra\2010.Hendrik Meurkens Quartet - A Night In Jakarta\10. Hereґs That Rainy Day.wav
Длина предзазора 0:00:02.00
Пиковый уровень 97.7 %
Скорость извлечения 3.7 X
Качество трека 100.0 %
CRC теста 438768C6
CRC копии 438768C6
Трек не обнаружен в базе AccurateRip
Копирование... OK
Ни одного трека нет в базе AccurateRip
Ошибок не произошло
Конец отчёта
==== Контрольная сумма отчёта 4E53BD8E1DB58BB5486887A50613D6B0B9642DBF68DBCECEE7F2D0E57F272551 ====
 
Содержание индексной карты (.CUE)
REM GENRE Jazz
REM DATE 2010
REM DISCID 7E0C830A
REM COMMENT "ExactAudioCopy v1.0b3"
PERFORMER "Hendrik Meurkens"
TITLE "A Night In Jakarta"
FILE "01. A Night in Jakarta.wav" WAVE
TRACK 01 AUDIO
TITLE "A Night in Jakarta"
PERFORMER "Hendrik Meurkens"
FLAGS DCP
INDEX 01 00:00:00
TRACK 02 AUDIO
TITLE "A Ilha"
PERFORMER "Hendrik Meurkens"
FLAGS DCP
INDEX 00 06:01:38
FILE "02. A Ilha.wav" WAVE
INDEX 01 00:00:00
TRACK 03 AUDIO
TITLE "Choronto"
PERFORMER "Hendrik Meurkens"
FLAGS DCP
INDEX 00 05:35:73
FILE "03. Choronto.wav" WAVE
INDEX 01 00:00:00
TRACK 04 AUDIO
TITLE "They Can't Take That Away From Me"
PERFORMER "Hendrik Meurkens"
FLAGS DCP
INDEX 00 05:05:38
FILE "04. They Can't Take That Away From Me.wav" WAVE
INDEX 01 00:00:00
TRACK 05 AUDIO
TITLE "September Choro"
PERFORMER "Hendrik Meurkens"
FLAGS DCP
INDEX 00 04:41:05
FILE "05. September Choro.wav" WAVE
INDEX 01 00:00:00
TRACK 06 AUDIO
TITLE "The Winter Sea"
PERFORMER "Hendrik Meurkens"
FLAGS DCP
INDEX 00 04:20:01
FILE "06. The Winter Sea.wav" WAVE
INDEX 01 00:00:00
TRACK 07 AUDIO
TITLE "Bolero Para Paquito"
PERFORMER "Hendrik Meurkens"
FLAGS DCP
INDEX 00 06:21:21
FILE "07. Bolero Para Paquito.wav" WAVE
INDEX 01 00:00:00
TRACK 08 AUDIO
TITLE "Choro no.8"
PERFORMER "Hendrik Meurkens"
FLAGS DCP
INDEX 00 06:36:44
FILE "08. Choro no.8.wav" WAVE
INDEX 01 00:00:00
TRACK 09 AUDIO
TITLE "Prague In March"
PERFORMER "Hendrik Meurkens"
FLAGS DCP
INDEX 00 02:52:42
FILE "09. Prague In March.wav" WAVE
INDEX 01 00:00:00
TRACK 10 AUDIO
TITLE "Hereґs That Rainy Day"
PERFORMER "Hendrik Meurkens"
FLAGS DCP
INDEX 00 06:51:06
FILE "10. Hereґs That Rainy Day.wav" WAVE
INDEX 01 00:00:00
03:44
251
Нет комментариев. Ваш будет первым!