Поиск

(Latin Jazz,Post-Bop) Chano Dominguez Trio - Con Alma - 2004, Venus Japan, FLAC (tracks+.cue), lossless

(Latin Jazz,Post-Bop) Chano Dominguez Trio - Con Alma - 2004, Venus Japan, FLAC (tracks+.cue), lossless
Треклист:
Chano Dominguez Trio - Con Alma Жанр: Latin Jazz,Post-Bop
Год выпуска диска: 2004
Производитель диска: Venus Japan / VKCV-35328
Аудио кодек: FLAC
Тип рипа: (tracks+.cue)
Битрейт аудио: lossless
Продолжительность: 70:21
Источник : сеть
Трэклист:
01. La Tarara
02. No Me Patiques Mas
03. How About You?
04. Dolphin Dance
05. Con Alma
06. El Toro Y La Luna
07. It Could Happen To You
08. Hullo Bolinas
09. Jure
10. Speak Low
11. Darn That Dream
 
Personnel
Chano Dominguez (piano)
George Mraz (bass)
Jeff Ballard (drums)
 
Доп. информация
This is a rather different Chano from the one who first enthralled me with Hecho a Mano (Hand-made), his blazing flamenco/jazz mix recorded in Madrid in 1996 and released on Sunnyside a few years ago. On Con Alma he's replaced the handclaps and multilayered percussion with a traditional jazz trio, bringing on world-class bandmates George Mraz and Jeff Ballard. But his roots are still very much in evidence from the first track, a dynamic take on a traditional song — my dictionary tells me "La Tatara" means "sound of a trumpet as a signal for action." There's no trumpet here, but there's plenty of action.
Dominguez has a lithe, sensitive touch, impeccable time, and terrific sense of spacing; while he has chops to burn, he lets a lot of fresh air into his playing, unlike some of his more bombastic compatriots. "How About You" is bright and playful and his "Dolphin Dance" is a whirl through the clouds rather than a splash in the sea. Dominguez knows how to build excitement, as demonstrated in the title track; "Con Alma," which features one of several fine solos by Mraz, who is justifiably famous for his lyricism and fat, round sound. Meanwhile, Ballard supplies just the right feel throughout: subtle, intricate, and ever-swinging, he gets to break out on a delightful, sparkling "Speak Low." It's a terrific trio and beautifully in synch.
One of my favorite tracks is "It Could Happen to You," which begins with a solo full of flamenco flair, then takes off for an extended joyride. This is followed by an intriguing meditation on Steve Swallow's "Hullo Bolinas" which is both free and structured, highlighting the group's versatility. The inclusion of strong Spanish compositions makes a nice mix with the familiar standards; Con Alma ia a rich and tasty feast, laced with salsa. Recommended.

Это - довольно различный Chano от того, который сначала приводил в восторг меня с Hecho Mano (Ручной работы), его сверкающее соединение фламенко/джаза, записанное в Мадриде в 1996, и выпускал на Sunnyside несколько лет назад. На Con Alma он заменил хлопки в ладоши и многослойные ударные инструменты с традиционным джазовым трио, навлекая bandmates Джорджа Mraz мирового класса и Джефа Ballard. Но его основные тоны находятся все еще очень в свидетельстве от первого трека, динамического взятия на традиционной песне - мой словарь говорит мне "Ля Tatara" средства "звук трубы как сигнал для действия." Здесь нет никакой трубы, но есть много действия.
У Dominguez есть гибкий, чувствительный контакт, безупречное время, и потрясающий смысл ранжира; в то время как у него есть отбивные, чтобы гореть, он позволяет большому количеству свежего воздуха в его игру, в отличие от некоторых его большего количества претенциозных соотечественников. "Как О Вас" ярко и игрив, и его "Танец Дельфина" является водоворотом через облака, а не всплеск в море. Dominguez знает, как построить волнение, как демонстрируется в заглавной песне; "Con Alma," который показывает одно из нескольких прекрасных соло Mraz, кто оправданно известен его лиризмом и жиром, круглым звуком. Тем временем, Ballard поставляет только правильное чувство повсюду: тонкий, запутанный, и когда-либо качающийся, он добирается, чтобы вспыхнуть на восхитительном, сверкающий "Говорят Низко." Это - потрясающее трио и красиво в синхронизации.
Один из моих любимых треков, "Это Могло Случиться с Вами,", который начинается с соло, полного таланта фламенко, затем взлетает для расширенной авантюры. Это сопровождается интригующим размышлением по Стиву Swallow's "Привет Bolinas", который и свободен и структурирован, выдвигая на первый план многосторонность группы. Включение сильных испанских сочинений делает хорошее соединение со знакомыми стандартами; Con Alma ia богатый и вкусный банкет, laced с сальсой. Рекомендуемый.
 
ЕАС
Exact Audio Copy V0.99 prebeta 5 from 4. May 2009
EAC extraction logfile from 11. June 2009, 22:39
Chano Dominguez Trio / Con Alma
Used drive : PLEXTOR DVDR PX-800A Adapter: 0 ID: 1
Read mode : Secure
Utilize accurate stream : Yes
Defeat audio cache : Yes
Make use of C2 pointers : No
Read offset correction : 48
Overread into Lead-In and Lead-Out : No
Fill up missing offset samples with silence : Yes
Delete leading and trailing silent blocks : No
Null samples used in CRC calculations : Yes
Used interface : Native Win32 interface for Win NT & 2000
Gap handling : Appended to previous track
Used output format : User Defined Encoder
Selected bitrate : 1024 kBit/s
Quality : High
Add ID3 tag : No
Command line compressor : D:\Program Files\Exact Audio Copy\Flac\flac.exe
Additional command line options : -8 -V -T "ARTIST=%a" -T "TITLE=%t" -T "ALBUM=%g" -T "DATE=%y" -T "TRACKNUMBER=%n" -T "GENRE=%m" -T "COMMENT=EAC FLAC
-8" %s
TOC of the extracted CD
Track | Start | Length | Start sector | End sector
---------------------------------------------------------
1 | 0:00.00 | 4:48.00 | 0 | 21599
2 | 4:48.00 | 6:02.61 | 21600 | 48810
3 | 10:50.61 | 5:27.16 | 48811 | 73351
4 | 16:18.02 | 5:51.01 | 73352 | 99677
5 | 22:09.03 | 5:34.61 | 99678 | 124788
6 | 27:43.64 | 7:49.16 | 124789 | 159979
7 | 35:33.05 | 7:25.01 | 159980 | 193355
8 | 42:58.06 | 7:42.01 | 193356 | 228006
9 | 50:40.07 | 7:19.02 | 228007 | 260933
10 | 57:59.09 | 6:23.00 | 260934 | 289658
11 | 64:22.09 | 5:59.17 | 289659 | 316600
Track 1
Filename Y:\UD\Chano Dominguez Trio - Con Alma (2004) [FLAC] {Venus VKCV-35328}\01 - La Tarara.wav
Pre-gap length 0:00:02.00
Peak level 100.0 %
Track quality 100.0 %
Test CRC DBD71E34
Copy CRC DBD71E34
Track not present in AccurateRip database
Copy OK
Track 2
Filename Y:\UD\Chano Dominguez Trio - Con Alma (2004) [FLAC] {Venus VKCV-35328}\02 - No Me Patiques Mas.wav
Pre-gap length 0:00:03.45
Peak level 100.0 %
Track quality 100.0 %
Test CRC 9D2DB439
Copy CRC 9D2DB439
Track not present in AccurateRip database
Copy OK
Track 3
Filename Y:\UD\Chano Dominguez Trio - Con Alma (2004) [FLAC] {Venus VKCV-35328}\03 - How About You .wav
Pre-gap length 0:00:03.30
Peak level 100.0 %
Track quality 100.0 %
Test CRC 772DE54D
Copy CRC 772DE54D
Track not present in AccurateRip database
Copy OK
Track 4
Filename Y:\UD\Chano Dominguez Trio - Con Alma (2004) [FLAC] {Venus VKCV-35328}\04 - Dolphin Dance.wav
Pre-gap length 0:00:04.45
Peak level 100.0 %
Track quality 100.0 %
Test CRC C3B4E654
Copy CRC C3B4E654
Track not present in AccurateRip database
Copy OK
Track 5
Filename Y:\UD\Chano Dominguez Trio - Con Alma (2004) [FLAC] {Venus VKCV-35328}\05 - Con Alma.wav
Pre-gap length 0:00:04.45
Peak level 100.0 %
Track quality 100.0 %
Test CRC EB9267C1
Copy CRC EB9267C1
Track not present in AccurateRip database
Copy OK
Track 6
Filename Y:\UD\Chano Dominguez Trio - Con Alma (2004) [FLAC] {Venus VKCV-35328}\06 - El Toro Y La Luna.wav
Pre-gap length 0:00:04.30
Peak level 100.0 %
Track quality 99.9 %
Test CRC F7022682
Copy CRC F7022682
Track not present in AccurateRip database
Copy OK
Track 7
Filename Y:\UD\Chano Dominguez Trio - Con Alma (2004) [FLAC] {Venus VKCV-35328}\07 - It Could Happen To You.wav
Pre-gap length 0:00:03.45
Peak level 100.0 %
Track quality 100.0 %
Test CRC 41FDC4F1
Copy CRC 41FDC4F1
Track not present in AccurateRip database
Copy OK
Track 8
Filename Y:\UD\Chano Dominguez Trio - Con Alma (2004) [FLAC] {Venus VKCV-35328}\08 - Hullo Bolinas.wav
Pre-gap length 0:00:04.45
Peak level 100.0 %
Track quality 100.0 %
Test CRC 5D60EECD
Copy CRC 5D60EECD
Track not present in AccurateRip database
Copy OK
Track 9
Filename Y:\UD\Chano Dominguez Trio - Con Alma (2004) [FLAC] {Venus VKCV-35328}\09 - Jure.wav
Pre-gap length 0:00:03.45
Peak level 100.0 %
Track quality 100.0 %
Test CRC FAB44E6B
Copy CRC FAB44E6B
Track not present in AccurateRip database
Copy OK
Track 10
Filename Y:\UD\Chano Dominguez Trio - Con Alma (2004) [FLAC] {Venus VKCV-35328}\10 - Speak Low.wav
Pre-gap length 0:00:04.45
Peak level 100.0 %
Track quality 100.0 %
Test CRC 49D5AD01
Copy CRC 49D5AD01
Track not present in AccurateRip database
Copy OK
Track 11
Filename Y:\UD\Chano Dominguez Trio - Con Alma (2004) [FLAC] {Venus VKCV-35328}\11 - Darn That Dream.wav
Pre-gap length 0:00:04.45
Peak level 100.0 %
Track quality 100.0 %
Test CRC C668EE1B
Copy CRC C668EE1B
Track not present in AccurateRip database
Copy OK
None of the tracks are present in the AccurateRip database
No errors occurred
End of status report
 
Audiochecker
07:08
247
Нет комментариев. Ваш будет первым!