Вы используете незарегистрированную версию компонента "Вкладки"!

Поиск

(Latin Jazz, Post-Bop) [CD] Marialy Pacheco - Duets - 2017, FLAC (tracks+.cue), lossless

(Latin Jazz, Post-Bop) [CD] Marialy Pacheco - Duets - 2017, FLAC (tracks+.cue), lossless
Треклист:
Marialy Pacheco - Duets
Жанр: Latin Jazz, Post-Bop
Носитель: CD
Страна-производитель диска (релиза): Германия
Год издания: 2017
Издатель (лейбл): Neuklang
Номер по каталогу: NCD4155
Аудиокодек: FLAC (*.flac)
Тип рипа: tracks+.cue
Битрейт аудио: lossless
Продолжительность: 57:38
Источник (релизер): redacted
Наличие сканов в содержимом раздачи: да
Треклист:
01. El Bola (Sosa) - 6:34
02. Capricho do Sul (Holanda) - 5:02
03. Metro (Pacheco) - 6:06
04. You (Mutzke) - 5:24
05. Gitanerias (Lecuona) - 3:15
06. Burundanga (Bouffartique) - 8:42
07. La Comparsa (Lecuona) - 8:40
08. La Bikina (Fuentes) - 6:51
09. El Bola "Warming Up" (Sosa) - 7:04
Состав:
Marialy Pacheco - piano
Omar Sosa (#1) - piano, vocals, effects
Hamilton de Holanda (#2) - mandolin
Joo Kraus (#3) - trumpet, effects
Max Mutzke (#4) - vocals
Rhani Krija (#6) - percussion
Miguel Zenon (#7) - saxophone
Recorded at Bauer Studios, Ludwigsburg in August-November 2016.
 
Лог создания рипа
Exact Audio Copy V1.0 beta 3 from 29. August 2011
EAC extraction logfile from 17. June 2017, 14:35
Marialy Pacheco / Duets
Used drive : ASUS DRW-24F1ST a Adapter: 0 ID: 0
Read mode : Secure
Utilize accurate stream : Yes
Defeat audio cache : Yes
Make use of C2 pointers : No
Read offset correction : 6
Overread into Lead-In and Lead-Out : No
Fill up missing offset samples with silence : Yes
Delete leading and trailing silent blocks : No
Null samples used in CRC calculations : Yes
Used interface : Native Win32 interface for Win NT & 2000
Gap handling : Appended to previous track
Used output format : User Defined Encoder
Selected bitrate : 128 kBit/s
Quality : High
Add ID3 tag : No
Command line compressor : C:\Program Files (x86)\Exact Audio Copy\FLAC\FLAC.EXE
Additional command line options : -8 -V -T "ARTIST=%artist%" -T "TITLE=%title%" -T "ALBUM=%albumtitle%" -T "DATE=%year%" -T "TRACKNUMBER=%tracknr%" -T "TOTALTRACKS=%numtracks%" -T "GENRE=%genre%" -T "ALBUMARTIST=%albumartist%" -T "ALBUM ARTIST=%albumartist%" -T "COMMENT=EAC Secure Mode, Test & Copy, AccurateRip, FLAC -8" %source%
TOC of the extracted CD
Track | Start | Length | Start sector | End sector
---------------------------------------------------------
1 | 0:00.00 | 6:34.03 | 0 | 29552
2 | 6:34.03 | 5:02.08 | 29553 | 52210
3 | 11:36.11 | 6:06.12 | 52211 | 79672
4 | 17:42.23 | 5:23.41 | 79673 | 103938
5 | 23:05.64 | 3:14.44 | 103939 | 118532
6 | 26:20.33 | 8:42.02 | 118533 | 157684
7 | 35:02.35 | 8:39.44 | 157685 | 196653
8 | 43:42.04 | 6:50.70 | 196654 | 227473
9 | 50:32.74 | 7:03.69 | 227474 | 259267
Track 1
Filename K:\EAC\01 - El Bola.wav
Pre-gap length 0:00:02.00
Peak level 92.2 %
Extraction speed 4.3 X
Track quality 99.9 %
Test CRC 2312DC88
Copy CRC 2312DC88
Track not present in AccurateRip database
Copy OK
Track 2
Filename K:\EAC\02 - Capricho do Suk.wav
Pre-gap length 0:00:04.14
Peak level 92.4 %
Extraction speed 4.7 X
Track quality 99.9 %
Test CRC 072DB5C4
Copy CRC 072DB5C4
Track not present in AccurateRip database
Copy OK
Track 3
Filename K:\EAC\03 - Metro.wav
Pre-gap length 0:00:04.03
Peak level 92.2 %
Extraction speed 5.4 X
Track quality 99.9 %
Test CRC C4676F4F
Copy CRC C4676F4F
Track not present in AccurateRip database
Copy OK
Track 4
Filename K:\EAC\04 - You.wav
Pre-gap length 0:00:03.53
Peak level 92.4 %
Extraction speed 6.3 X
Track quality 100.0 %
Test CRC EB8CEDA4
Copy CRC EB8CEDA4
Track not present in AccurateRip database
Copy OK
Track 5
Filename K:\EAC\05 - Gitanerias.wav
Pre-gap length 0:00:03.30
Peak level 91.8 %
Extraction speed 6.2 X
Track quality 100.0 %
Test CRC 2270D078
Copy CRC 2270D078
Track not present in AccurateRip database
Copy OK
Track 6
Filename K:\EAC\06 - Burundanga.wav
Pre-gap length 0:00:05.31
Peak level 92.9 %
Extraction speed 7.6 X
Track quality 100.0 %
Test CRC B500B45E
Copy CRC B500B45E
Track not present in AccurateRip database
Copy OK
Track 7
Filename K:\EAC\07 - La Comoarsa.wav
Pre-gap length 0:00:06.74
Peak level 90.2 %
Extraction speed 7.7 X
Track quality 99.9 %
Test CRC 37762480
Copy CRC 37762480
Track not present in AccurateRip database
Copy OK
Track 8
Filename K:\EAC\08 - La Bikina.wav
Pre-gap length 0:00:04.59
Peak level 92.2 %
Extraction speed 8.4 X
Track quality 100.0 %
Test CRC 3AB2CFED
Copy CRC 3AB2CFED
Track not present in AccurateRip database
Copy OK
Track 9
Filename K:\EAC\09 - El Bola 'warming up'.wav
Pre-gap length 0:00:06.21
Peak level 92.2 %
Extraction speed 8.8 X
Track quality 100.0 %
Test CRC 2E630C56
Copy CRC 2E630C56
Track not present in AccurateRip database
Copy OK
None of the tracks are present in the AccurateRip database
No errors occurred
End of status report
==== Log checksum 8FBC0CEF0F04079CEF2413DD11F2538BCFB5DCE292E70AEC47AFAACCF8EF54B7 ====
 
Содержание индексной карты (.CUE)
REM GENRE Jazz
REM DATE 2017
REM DISCID 780D8009
REM COMMENT "ExactAudioCopy v1.0b3"
PERFORMER "Marialy Pacheco"
TITLE "Duets"
FILE "01 - El Bola.wav" WAVE
TRACK 01 AUDIO
TITLE "El Bola"
PERFORMER "Marialy Pacheco"
INDEX 01 00:00:00
TRACK 02 AUDIO
TITLE "Capricho do Sul"
PERFORMER "Marialy Pacheco"
INDEX 00 06:29:64
FILE "02 - Capricho do Sul.wav" WAVE
INDEX 01 00:00:00
TRACK 03 AUDIO
TITLE "Metro"
PERFORMER "Marialy Pacheco"
INDEX 00 04:58:05
FILE "03 - Metro.wav" WAVE
INDEX 01 00:00:00
TRACK 04 AUDIO
TITLE "You"
PERFORMER "Marialy Pacheco"
INDEX 00 06:02:34
FILE "04 - You.wav" WAVE
INDEX 01 00:00:00
TRACK 05 AUDIO
TITLE "Gitanerias"
PERFORMER "Marialy Pacheco"
INDEX 00 05:20:11
FILE "05 - Gitanerias.wav" WAVE
INDEX 01 00:00:00
TRACK 06 AUDIO
TITLE "Burundanga"
PERFORMER "Marialy Pacheco"
INDEX 00 03:09:13
FILE "06 - Burundanga.wav" WAVE
INDEX 01 00:00:00
TRACK 07 AUDIO
TITLE "La Comparsa"
PERFORMER "Marialy Pacheco"
INDEX 00 08:35:03
FILE "07 - La Comparsa.wav" WAVE
INDEX 01 00:00:00
TRACK 08 AUDIO
TITLE "La Bikina"
PERFORMER "Marialy Pacheco"
INDEX 00 08:34:60
FILE "08 - La Bikina.wav" WAVE
INDEX 01 00:00:00
TRACK 09 AUDIO
TITLE "El Bola 'Warming Up'"
PERFORMER "Marialy Pacheco"
INDEX 00 06:44:49
FILE "09 - El Bola 'Warming Up'.wav" WAVE
INDEX 01 00:00:00
 
Отчет CUETools
[CUETools log; Date: 02.11.2017 22:07:39; Version: 2.1.5]
[CTDB TOCID: KIVg8xxnMsoUHXrDGRvbcBklwUE-] found.
Track | CTDB Status
1 | (10/10) Accurately ripped
2 | (10/10) Accurately ripped
3 | (10/10) Accurately ripped
4 | (10/10) Accurately ripped
5 | (10/10) Accurately ripped
6 | (10/10) Accurately ripped
7 | (10/10) Accurately ripped
8 | (10/10) Accurately ripped
9 | (10/10) Accurately ripped
[AccurateRip ID: 0012b11e-008a95ba-780d8009] found.
Track [ CRC | V2 ] Status
01 [8686c3ca|59303eda] (0+5/5) Accurately ripped
02 [3bd1295d|673873fb] (0+5/5) Accurately ripped
03 [f76495b9|06c6b3bc] (0+5/5) Accurately ripped
04 [9df02e75|ebb42116] (0+5/5) Accurately ripped
05 [6af97f0e|c6838bc8] (0+5/5) Accurately ripped
06 [a659ec01|807bfa0e] (0+5/5) Accurately ripped
07 [1c299e10|9e931474] (0+5/5) Accurately ripped
08 [bfd6afe2|b18ed479] (0+5/5) Accurately ripped
09 [ab9220c0|5e06bb56] (0+5/5) Accurately ripped
Track Peak [ CRC32 ] [W/O NULL] [ LOG ]
-- 92,9 [444D533B] [F9230C3E]
01 92,2 [2312DC88] [BEEBA37A] CRC32
02 92,4 [072DB5C4] [DA6EACFF] CRC32
03 92,2 [C4676F4F] [E6859A95] CRC32
04 92,4 [EB8CEDA4] [F015FC47] CRC32
05 91,8 [2270D078] [A93A5257] CRC32
06 92,9 [B500B45E] [D8BE8D90] CRC32
07 90,2 [37762480] [3AAA584D] CRC32
08 92,2 [3AB2CFED] [ADFEC4E7] CRC32
09 92,2 [2E630C56] [ED864867] CRC32
 
Об альбоме (сборнике)
Marialy Pacheco meets Hamilton de Holanda, Joo Kraus, Rhani Krija, Max Mutzke, Omar Sosa and Miguel Zenon; six established figures from across the globe, each master of his own craft.With such a wealth of expertise and musicality on hand, a performance featuring all of these artists at the same time would inevitably mean that some aspects would be lost. So instead we have chosen to feature a series of separate ‘rendezvous’. And the Cuban pianist extracts the very best out of each individual encounter. The title of the CD, ‘Duets’, sums up this concept succinctly and although this may sound rather matter-of-fact, more lies behind it - much more.
Chucho Valdes, the grand old man of Cuban jazz, once described the pianist as the greatest of young piano talents. At the time, she had just won a young musicians competition in Cuba, where Valdes headed up the jury. Pachecos’ mother conducts a choir which is famous both in Cuba and further afield. When the choir took part in the Bremen ‘Choir Olympics’ in 2004, Marialy was there and she decided to remain in the city, home of the ‘Stadtmusikanten’ (the town musicians which feature in the famous fairy tale written by the Brothers Grimm). After an extended stay in Australia, the pianist returned to Germany. Initially back to Bremen but she now lives in Dortmund. In 2012, Pacheco won the renowned Montreux Solo Piano Competition.
When Marialy Pacheco performs one can truly sense her virtuosity, flair and sheer joy of making music without constraints, set free after her strict classical training. The six fellow musicians who Marialy Pacheco invited to join her in duet at the renowned Bauer Studios in Ludwigsburg could be similarly described. Musical citizens from around the world: a Puerto-Rican who lives in New York (Miguel Zenon), a Cuban whose home is in Barcelona (Omar Sosa), a Moroccan from Cologne (Rhani Krija), a Brazilian conqueror of the music world (Hamilton De Holanda), a trumpet player from Ulm, who recorded one of his albums in Havana (Joo Kraus) and a native of Waldshut-Tiengen, who is known throughout Europe not just for his participation in the Eurovision Song Contest (Max Mutzke). Musicians who are not stylistically blinkered, but who are passionate, individual and authentic and endowed with the virtues which are the basic prerequisites for performing as part of a duo: the ability to listen, to engage fully with their counterpart and to leave their ego at the studio door. [...] In DUETS, Marialy Pacheco practices the most intimate, direct and intensive form of musical exchange and in doing so, throws the door wide open.
Any questions -> support@pro-jazz.com. По всем вопросам пишите -> support@pro-jazz.com
02:53
289
Нет комментариев. Ваш будет первым!