Поиск

(Latin Jazz, Post-Bop) [CD] Allen Houser Quintet & Sextet - No Samba - 1973 (2006 Japan Edition), FLAC (tracks+.cue), lossless

(Latin Jazz, Post-Bop) [CD] Allen Houser Quintet & Sextet - No Samba - 1973 (2006 Japan Edition), FLAC (tracks+.cue), lossless
Allen Houser Quintet & Sextet - No Samba
Жанр: Latin Jazz, Post-Bop
Носитель: CD
Страна-производитель диска (релиза): Япония
Год издания: 2006
Издатель (лейбл): Bomba Records
Номер по каталогу: BOM24081
Страна исполнителя (группы): США
Аудиокодек: FLAC (*.flac)
Тип рипа: tracks+.cue
Битрейт аудио: lossless
Продолжительность: 35:03
Источник (релизер): wikieup (what)
Наличие сканов в содержимом раздачи: сетевые
Треклист:
01. Mexico (Houser) - 11:09
02. Charlottesville (Houser) - 5:19
03. No Samba (Hill) - 6:14
04. Cousin Rae's 3-Step (Kent) - 3:31
05. 10 Years After (Houser) - 8:50
Состав:
Allen Houser - trumpet
Buck Hill - tenor saxophone
Vince Genova - piano
Steve Novosel - Ampeg electric/acoustic bass
Terry Plumeri - Arco bass (#1,2)
Mike Smith - drums
Recorded in Silver Spring, MD in 1973.
 
Лог создания рипа
Exact Audio Copy V1.0 beta 3 from 29. August 2011
EAC extraction logfile from 14. July 2014, 9:28
Allen Houser Quintet & Sextet / No Samba [2006 Reissue]
Used drive : TSSTcorpDVD-ROM TS-U333B Adapter: 0 ID: 1
Read mode : Secure
Utilize accurate stream : Yes
Defeat audio cache : Yes
Make use of C2 pointers : No
Read offset correction : 6
Overread into Lead-In and Lead-Out : No
Fill up missing offset samples with silence : Yes
Delete leading and trailing silent blocks : No
Null samples used in CRC calculations : Yes
Used interface : Native Win32 interface for Win NT & 2000
Gap handling : Appended to previous track
Used output format : User Defined Encoder
Selected bitrate : 1024 kBit/s
Quality : High
Add ID3 tag : No
Command line compressor : C:\Program Files\Exact Audio Copy\Flac\flac.exe
Additional command line options : -8 -V -T "ARTIST=%artist%" -T "TITLE=%title%" -T "ALBUM=%albumtitle%" -T "DATE=%year%" -T "TRACKNUMBER=%tracknr%" -T "GENRE=%genre%" -T "PERFORMER=%albuminterpret%" -T "COMPOSER=%composer%" %haslyrics%--tag-from-file=LYRICS="%lyricsfile%"%haslyrics% -T "ALBUMARTIST=%albumartist%" -T "DISCNUMBER=%cdnumber%" -T "TOTALDISCS=%totalcds%" -T "TOTALTRACKS=%numtracks%" -T "COMMENT=%comment%" %source% -o %dest%
TOC of the extracted CD
Track | Start | Length | Start sector | End sector
---------------------------------------------------------
1 | 0:00.00 | 11:09.32 | 0 | 50206
2 | 11:09.32 | 5:19.08 | 50207 | 74139
3 | 16:28.40 | 6:14.35 | 74140 | 102224
4 | 22:43.00 | 3:30.71 | 102225 | 118045
5 | 26:13.71 | 8:49.69 | 118046 | 157789
Track 1
Filename C:\EAC Rips\01 - Mexico.wav
Pre-gap length 0:00:02.00
Peak level 98.8 %
Extraction speed 3.4 X
Track quality 100.0 %
Test CRC A957C37F
Copy CRC A957C37F
Track not present in AccurateRip database
Copy OK
Track 2
Filename C:\EAC Rips\02 - Charlottesville.wav
Pre-gap length 0:00:03.01
Peak level 98.6 %
Extraction speed 3.6 X
Track quality 100.0 %
Test CRC 53FA407F
Copy CRC 53FA407F
Track not present in AccurateRip database
Copy OK
Track 3
Filename C:\EAC Rips\03 - No Samba.wav
Pre-gap length 0:00:03.02
Peak level 98.8 %
Extraction speed 3.5 X
Track quality 99.9 %
Test CRC BC940292
Copy CRC BC940292
Track not present in AccurateRip database
Copy OK
Track 4
Filename C:\EAC Rips\04 - Cousin Rae's 3-Step.wav
Pre-gap length 0:00:03.01
Peak level 98.8 %
Extraction speed 3.9 X
Track quality 100.0 %
Test CRC FCBACBE8
Copy CRC FCBACBE8
Track not present in AccurateRip database
Copy OK
Track 5
Filename C:\EAC Rips\05 - 10 Years After.wav
Pre-gap length 0:00:03.01
Peak level 98.8 %
Extraction speed 4.6 X
Track quality 100.0 %
Test CRC 30A6E729
Copy CRC 30A6E729
Track not present in AccurateRip database
Copy OK
None of the tracks are present in the AccurateRip database
No errors occurred
End of status report
==== Log checksum 6FD54401566C41391BE808F610A641BCFB784F0C7639CE331E452BCF76348C9F ====
 
Содержание индексной карты (.CUE)
REM GENRE Jazz
REM DATE 1973
REM DISCID 43083705
REM COMMENT "ExactAudioCopy v1.0b3"
PERFORMER "Allen Houser"
TITLE "No Samba"
FILE "01 - Mexico.wav" WAVE
TRACK 01 AUDIO
TITLE "Mexico"
PERFORMER "Allen Houser"
INDEX 01 00:00:00
TRACK 02 AUDIO
TITLE "Charlottesville"
PERFORMER "Allen Houser"
INDEX 00 11:06:31
FILE "02 - Charlottesville.wav" WAVE
INDEX 01 00:00:00
TRACK 03 AUDIO
TITLE "No Samba"
PERFORMER "Allen Houser"
INDEX 00 05:16:06
FILE "03 - No Samba.wav" WAVE
INDEX 01 00:00:00
TRACK 04 AUDIO
TITLE "Cousin Rae's 3-Step"
PERFORMER "Allen Houser"
INDEX 00 06:11:34
FILE "04 - Cousin Rae's 3-Step.wav" WAVE
INDEX 01 00:00:00
TRACK 05 AUDIO
TITLE "10 Years After"
PERFORMER "Allen Houser"
INDEX 00 03:27:70
FILE "05 - 10 Years After.wav" WAVE
INDEX 01 00:00:00
 
Отчет CUETools
[CUETools log; Date: 16.11.2016 23:19:36; Version: 2.1.5]
[CTDB TOCID: vjdsGXYPWV6uGWf4yNRwixSHR4I-] found.
Track | CTDB Status
1 | (1/1) Accurately ripped
2 | (1/1) Accurately ripped
3 | (1/1) Accurately ripped
4 | (1/1) Accurately ripped
5 | (1/1) Accurately ripped
[AccurateRip ID: 0007aa88-00229e21-43083705] found.
Track [ CRC | V2 ] Status
01 [5443236e|9ee47dcd] (0+0/1) No match
02 [a344ae3b|8c1d5755] (0+0/1) No match
03 [9bf0810e|bec88f4b] (0+0/1) No match
04 [b08b821c|a9f6f9e4] (0+0/1) No match
05 [73769289|9b27cc4c] (0+0/1) No match
Offsetted by -664:
01 [ab9d2e06] (0/1) No match (V2 was not tested)
02 [bbce4713] (0/1) No match (V2 was not tested)
03 [0cf7eb06] (0/1) No match (V2 was not tested)
04 [f2f4b0ec] (0/1) No match (V2 was not tested)
05 [9b0bcff1] (0/1) No match (V2 was not tested)
Track Peak [ CRC32 ] [W/O NULL] [ LOG ]
-- 98,8 [745DCC11] [19C28941]
01 98,8 [A957C37F] [3C8F2705] CRC32
02 98,6 [53FA407F] [89C1918E] CRC32
03 98,8 [BC940292] [AD133BF3] CRC32
04 98,8 [FCBACBE8] [DC59D105] CRC32
05 98,8 [30A6E729] [F15B25EB] CRC32
22:32
772
Нет комментариев. Ваш будет первым!