Поиск

(Latin Jazz, Piano, Percussion) Hugo Fattoruso & Tomohiro Yahiro - Dos Orientales - 2008 [2010, Argentine Edition], FLAC (tracks+.cue), lossless

Треклист:
Hugo Fattoruso & Tomohiro Yahiro / Dos Orientales
Жанр: Latin Jazz, Piano, Percussion
Страна-производитель диска: Argentina
Год издания: 2008, 2010 Argentine Edition
Издатель (лейбл): Barca Discos
Номер по каталогу: SLC 693
Страна: Japan, Uruguay
Аудиокодек: FLAC (*.flac)
Тип рипа: tracks+.cue
Битрейт аудио: lossless
Продолжительность: 56:25
Источник (релизер): what.cd
Наличие сканов в содержимом раздачи: да
Треклист:
01. La papa (H.Fattoruso-O.Fattoruso)
02. Desafinado (A.C.Jobim)
03. Esa tristeza (Eduardo Mateo)
04. Ichi ni san shi (H.Fattoruso)
05. Piano, pandeiro e passarinho (H.Fattoruso)
06. Milonga de Nagoya (H.Fattoruso)
07. Dos orillas (H.Fattoruso-T.Yahiro)
08. Sin nombre ~ Al pie de la letra (H.Fattoruso)
09. Ten more miles (Francisco Fattoruso)
 
Лог создания рипа
Exact Audio Copy V1.0 beta 3 from 29. August 2011
EAC extraction logfile from 15. May 2012, 18:53
Hugo Fattoruso & Tomohiro Yahiro / Dos Orientales
Used drive : SONY DVD RW DW-Q28A Adapter: 0 ID: 1
Read mode : Secure
Utilize accurate stream : Yes
Defeat audio cache : Yes
Make use of C2 pointers : No
Read offset correction : 12
Overread into Lead-In and Lead-Out : No
Fill up missing offset samples with silence : Yes
Delete leading and trailing silent blocks : No
Null samples used in CRC calculations : Yes
Used interface : Native Win32 interface for Win NT & 2000
Gap handling : Appended to previous track
Used output format : User Defined Encoder
Selected bitrate : 128 kBit/s
Quality : High
Add ID3 tag : No
Command line compressor : C:\Archivos de programa\FLAC\flac.exe
Additional command line options : -8 -V -T "ARTIST=%artist%" -T "TITLE=%title%" -T "ALBUM=%albumtitle%" -T "DATE=%year%" -T "TRACKNUMBER=%tracknr%" -T "GENRE=%genre%" -T "PERFORMER=%albuminterpret%" -T "COMPOSER=%composer%" %haslyrics%--tag-from-file=LYRICS="%lyricsfile%"%haslyrics% -T "ALBUMARTIST=%albumartist%" -T "DISCNUMBER=%cdnumber%" -T "TOTALDISCS=%totalcds%" -T "TOTALTRACKS=%numtracks%" -T "COMMENT=%comment%" %source% -o %dest%
TOC of the extracted CD
Track | Start | Length | Start sector | End sector
---------------------------------------------------------
1 | 0:00.00 | 6:24.40 | 0 | 28839
2 | 6:24.40 | 5:49.35 | 28840 | 55049
3 | 12:14.00 | 5:28.10 | 55050 | 79659
4 | 17:42.10 | 4:56.47 | 79660 | 101906
5 | 22:38.57 | 6:12.20 | 101907 | 129826
6 | 28:51.02 | 4:56.30 | 129827 | 152056
7 | 33:47.32 | 8:02.13 | 152057 | 188219
8 | 41:49.45 | 7:01.17 | 188220 | 219811
9 | 48:50.62 | 7:37.10 | 219812 | 254096
Track 1
Filename C:\BitTorrent Downloads\Hugo Fattoruso & Tomohiro Yahiro - Dos Orientales (2008) [FLAC] {2010 SLC 693}\01. La Papa.wav
Pre-gap length 0:00:02.00
Peak level 99.9 %
Extraction speed 3.6 X
Track quality 100.0 %
Test CRC D785FC94
Copy CRC D785FC94
Track not present in AccurateRip database
Copy OK
Track 2
Filename C:\BitTorrent Downloads\Hugo Fattoruso & Tomohiro Yahiro - Dos Orientales (2008) [FLAC] {2010 SLC 693}\02. Desafinado.wav
Pre-gap length 0:00:05.12
Peak level 99.6 %
Extraction speed 3.6 X
Track quality 100.0 %
Test CRC 02A6FC15
Copy CRC 02A6FC15
Track not present in AccurateRip database
Copy OK
Track 3
Filename C:\BitTorrent Downloads\Hugo Fattoruso & Tomohiro Yahiro - Dos Orientales (2008) [FLAC] {2010 SLC 693}\03. Esa Tristeza.wav
Pre-gap length 0:00:04.16
Peak level 99.7 %
Extraction speed 3.6 X
Track quality 100.0 %
Test CRC 7FB12A54
Copy CRC 7FB12A54
Track not present in AccurateRip database
Copy OK
Track 4
Filename C:\BitTorrent Downloads\Hugo Fattoruso & Tomohiro Yahiro - Dos Orientales (2008) [FLAC] {2010 SLC 693}\04. Ichi Ni San Shi.wav
Pre-gap length 0:00:05.13
Peak level 98.9 %
Extraction speed 3.6 X
Track quality 100.0 %
Test CRC 0285FED7
Copy CRC 0285FED7
Track not present in AccurateRip database
Copy OK
Track 5
Filename C:\BitTorrent Downloads\Hugo Fattoruso & Tomohiro Yahiro - Dos Orientales (2008) [FLAC] {2010 SLC 693}\05. Piano, Pandeiro E Passarinho.wav
Pre-gap length 0:00:04.09
Peak level 99.6 %
Extraction speed 3.6 X
Track quality 100.0 %
Test CRC 3D2CAA7C
Copy CRC 3D2CAA7C
Track not present in AccurateRip database
Copy OK
Track 6
Filename C:\BitTorrent Downloads\Hugo Fattoruso & Tomohiro Yahiro - Dos Orientales (2008) [FLAC] {2010 SLC 693}\06. Milonga de Nagoya.wav
Pre-gap length 0:00:05.13
Peak level 99.7 %
Extraction speed 3.6 X
Track quality 100.0 %
Test CRC 63E09430
Copy CRC 63E09430
Track not present in AccurateRip database
Copy OK
Track 7
Filename C:\BitTorrent Downloads\Hugo Fattoruso & Tomohiro Yahiro - Dos Orientales (2008) [FLAC] {2010 SLC 693}\07. Dos Orillas.wav
Pre-gap length 0:00:05.20
Peak level 99.7 %
Extraction speed 3.6 X
Track quality 100.0 %
Test CRC 3374D26F
Copy CRC 3374D26F
Track not present in AccurateRip database
Copy OK
Track 8
Filename C:\BitTorrent Downloads\Hugo Fattoruso & Tomohiro Yahiro - Dos Orientales (2008) [FLAC] {2010 SLC 693}\08. Sin Nombre - Al Pie de la Letra.wav
Pre-gap length 0:00:04.13
Peak level 99.8 %
Extraction speed 3.6 X
Track quality 100.0 %
Test CRC 53DDD900
Copy CRC 53DDD900
Track not present in AccurateRip database
Copy OK
Track 9
Filename C:\BitTorrent Downloads\Hugo Fattoruso & Tomohiro Yahiro - Dos Orientales (2008) [FLAC] {2010 SLC 693}\09. Ten More Miles.wav
Peak level 99.6 %
Extraction speed 3.2 X
Track quality 100.0 %
Test CRC 1FD2160F
Copy CRC 1FD2160F
Track not present in AccurateRip database
Copy OK
None of the tracks are present in the AccurateRip database
No errors occurred
End of status report
---- CUETools DB Plugin V2.1.3
[CTDB TOCID: 5VqjNPjTYkqSlNLcqaS63CYL9.w-] disk not present in database, Submit result: 5VqjNPjTYkqSlNLcqaS63CYL9.w- has been uploaded
==== Log checksum 1CA583BD931BE659B8C40AAEBDF74732BA03DCB9D589490D6FAABE6797000F2C ====
 
Содержание индексной карты (.CUE)
REM GENRE Fusion
REM DATE 2010
REM DISCID 6C0D3B09
REM COMMENT "ExactAudioCopy v1.0b3"
CATALOG 09010716662;5
PERFORMER "Hugo Fattoruso & Tomohiro Yahiro"
TITLE "Dos Orientales"
FILE "01. La Papa.wav" WAVE
TRACK 01 AUDIO
TITLE "La Papa"
PERFORMER "Hugo Fattoruso & Tomohiro Yahiro"
ISRC 2@4756600560
INDEX 01 00:00:00
TRACK 02 AUDIO
TITLE "Desafinado"
PERFORMER "Hugo Fattoruso & Tomohiro Yahiro"
ISRC 2@4756600560
INDEX 00 06:19:31
FILE "02. Desafinado.wav" WAVE
INDEX 01 00:00:00
TRACK 03 AUDIO
TITLE "Esa Tristeza"
PERFORMER "Hugo Fattoruso & Tomohiro Yahiro"
ISRC 2@4756600560
INDEX 00 05:45:23
FILE "03. Esa Tristeza.wav" WAVE
INDEX 01 00:00:00
TRACK 04 AUDIO
TITLE "Ichi Ni San Shi"
PERFORMER "Hugo Fattoruso & Tomohiro Yahiro"
ISRC 2@4756600560
INDEX 00 05:23:00
FILE "04. Ichi Ni San Shi.wav" WAVE
INDEX 01 00:00:00
TRACK 05 AUDIO
TITLE "Piano, Pandeiro E Passarinho"
PERFORMER "Hugo Fattoruso & Tomohiro Yahiro"
ISRC 2@4756600560
INDEX 00 04:52:40
FILE "05. Piano, Pandeiro E Passarinho.wav" WAVE
INDEX 01 00:00:00
TRACK 06 AUDIO
TITLE "Milonga de Nagoya"
PERFORMER "Hugo Fattoruso & Tomohiro Yahiro"
ISRC 2@4756600560
INDEX 00 06:07:10
FILE "06. Milonga de Nagoya.wav" WAVE
INDEX 01 00:00:00
TRACK 07 AUDIO
TITLE "Dos Orillas"
PERFORMER "Hugo Fattoruso & Tomohiro Yahiro"
ISRC 2@4756600560
INDEX 00 04:51:15
FILE "07. Dos Orillas.wav" WAVE
INDEX 01 00:00:00
TRACK 08 AUDIO
TITLE "Sin Nombre - Al Pie de la Letra"
PERFORMER "Hugo Fattoruso & Tomohiro Yahiro"
ISRC 2@4756600560
INDEX 00 07:58:03
FILE "08. Sin Nombre - Al Pie de la Letra.wav" WAVE
INDEX 01 00:00:00
FILE "09. Ten More Miles.wav" WAVE
TRACK 09 AUDIO
TITLE "Ten More Miles"
PERFORMER "Hugo Fattoruso & Tomohiro Yahiro"
ISRC 2@4756600560
INDEX 01 00:00:00
 
Состав
Hugo Fattoruso: piano, accordion, tambor piano, voices, whistle
Tomohiro Yahiro: percussion
03:55
277
Нет комментариев. Ваш будет первым!