Поиск

(Latin Jazz) Mongo Santamaria - Mongo at the Village Gate - 1990, FLAC (tracks+.cue), lossless

(Latin Jazz) Mongo Santamaria - Mongo at the Village Gate - 1990, FLAC (tracks+.cue), lossless
Треклист:
Mongo Santamaria - Mongo at the Village Gate
Жанр: Latin Jazz
Страна-производитель диска: U.S.A.
Год издания диска: 1990
Издатель (лейбл): Riverside/OJC
Номер по каталогу: 0002521-8649025
Аудиокодек: FLAC (*.flac)
Тип рипа: tracks+.cue
Битрейт аудио: lossless
Продолжительность: 00:48:19
Источник (релизер): Oceandrop
Наличие сканов в содержимом раздачи: да
Треклист:
01. Introduction by "Symphony Sid" (0:43)
02. El Toro (6:35)
03. Fatback (6:00)
04. Mongo's Groove (3:20)
05. Creole (2:31)
06. The Jungle Bit (6:49)
07. My Sound (3:01)
08. The Morning After (6:47)
09. Nothing for Nothing (7:21)
10. Para Ti (5:14)
Personnel:
Mongo Satamaria - conga drums
Marty Sheller - trumpet
Pat Patrick, Bobby Capers - flutes, saxophones
Rodgers Grant - piano
Victor Venegas - bass
Frank Hernandez - drums
"Chihuahua" Martinez, Julian Cabrera - latin percussion
 
Лог создания рипа
EAC extraction logfile from 5. November 2007, 1:24 for CD
Mongo Santamaria / Mongo At The Village Gate
Used drive : HL-DT-STDVD-ROM GDR8162B Adapter: 1 ID: 1
Read mode : Secure with NO C2, accurate stream, disable cache
Read offset correction : 102
Overread into Lead-In and Lead-Out : No
Used output format : C:\Programmi\Eac\flac.exe (User Defined Encoder)
32 kBit/s
Additional command line options : -8 -V -T "artist=%a" -T "title=%t" -T "album=%g" -T "date=%y" -T "tracknumber=%n" -T "genre=%m" -T "comment=Exact Audio Copy 0.95b4, Flac 1.1.4.a -8" %s
Other options :
Fill up missing offset samples with silence : Yes
Delete leading and trailing silent blocks : No
Installed external ASPI interface
Track 1
Filename C:\EAC\Mongo Santamaria - Mongo At The Village Gate (1963) [FLAC]\01 - Introduction by 'Symphony Sid'.wav
Pre-gap length 0:00:02.00
Peak level 87.1 %
Track quality 100.0 %
Test CRC 376FADC8
Copy CRC 376FADC8
Copy OK
Track 2
Filename C:\EAC\Mongo Santamaria - Mongo At The Village Gate (1963) [FLAC]\02 - El Toro.wav
Pre-gap length 0:00:01.16
Peak level 99.7 %
Track quality 100.0 %
Test CRC 1B2736AE
Copy CRC 1B2736AE
Copy OK
Track 3
Filename C:\EAC\Mongo Santamaria - Mongo At The Village Gate (1963) [FLAC]\03 - Fatback.wav
Pre-gap length 0:00:01.57
Peak level 99.9 %
Track quality 99.9 %
Test CRC 9FA97FCA
Copy CRC 9FA97FCA
Copy OK
Track 4
Filename C:\EAC\Mongo Santamaria - Mongo At The Village Gate (1963) [FLAC]\04 - Mongo's Groove.wav
Pre-gap length 0:00:00.29
Peak level 100.0 %
Track quality 99.9 %
Test CRC CC5FCD3A
Copy CRC CC5FCD3A
Copy OK
Track 5
Filename C:\EAC\Mongo Santamaria - Mongo At The Village Gate (1963) [FLAC]\05 - Creole.wav
Pre-gap length 0:00:01.82
Peak level 100.0 %
Track quality 100.0 %
Test CRC 6301ACB6
Copy CRC 6301ACB6
Copy OK
Track 6
Filename C:\EAC\Mongo Santamaria - Mongo At The Village Gate (1963) [FLAC]\06 - The Jungle Bit.wav
Pre-gap length 0:00:02.00
Peak level 99.7 %
Track quality 100.0 %
Test CRC 2499BCB1
Copy CRC 2499BCB1
Copy OK
Track 7
Filename C:\EAC\Mongo Santamaria - Mongo At The Village Gate (1963) [FLAC]\07 - My Sound.wav
Pre-gap length 0:00:01.53
Peak level 99.6 %
Track quality 100.0 %
Test CRC 029C895D
Copy CRC 029C895D
Copy OK
Track 8
Filename C:\EAC\Mongo Santamaria - Mongo At The Village Gate (1963) [FLAC]\08 - The Morning After.wav
Pre-gap length 0:00:01.69
Peak level 79.5 %
Track quality 100.0 %
Test CRC 79149C03
Copy CRC 79149C03
Copy OK
Track 9
Filename C:\EAC\Mongo Santamaria - Mongo At The Village Gate (1963) [FLAC]\09 - Nothing For Nothing.wav
Pre-gap length 0:00:01.24
Peak level 99.9 %
Track quality 100.0 %
Test CRC 80249DC4
Copy CRC 80249DC4
Copy OK
Track 10
Filename C:\EAC\Mongo Santamaria - Mongo At The Village Gate (1963) [FLAC]\10 - Para Ti.wav
Pre-gap length 0:00:01.62
Peak level 74.5 %
Track quality 100.0 %
Test CRC A1A8B3D4
Copy CRC A1A8B3D4
Copy OK
No errors occured
End of status report
 
Содержание индексной карты (.CUE)
REM GENRE Jazz
REM DATE 1963
REM DISCID A50B530A
REM COMMENT "ExactAudioCopy v0.95b4"
CATALOG 0025218649025
PERFORMER "Mongo Santamaria"
TITLE "Mongo At The Village Gate"
FILE "01 - Introduction by 'Symphony Sid'.wav" WAVE
TRACK 01 AUDIO
TITLE "Introduction by 'Symphony Sid'"
PERFORMER "Mongo Santamaria"
ISRC USFI86400431
INDEX 01 00:00:00
TRACK 02 AUDIO
TITLE "El Toro"
PERFORMER "Mongo Santamaria"
ISRC USFI86400432
INDEX 00 00:41:30
FILE "02 - El Toro.wav" WAVE
INDEX 01 00:00:00
TRACK 03 AUDIO
TITLE "Fatback"
PERFORMER "Mongo Santamaria"
ISRC USFI86400433
INDEX 00 06:32:70
FILE "03 - Fatback.wav" WAVE
INDEX 01 00:00:00
TRACK 04 AUDIO
TITLE "Mongo's Groove"
PERFORMER "Mongo Santamaria"
ISRC USFI86400434
INDEX 00 05:59:25
FILE "04 - Mongo's Groove.wav" WAVE
INDEX 01 00:00:00
TRACK 05 AUDIO
TITLE "Creole"
PERFORMER "Mongo Santamaria"
ISRC USFI86400435
INDEX 00 03:18:03
FILE "05 - Creole.wav" WAVE
INDEX 01 00:00:00
TRACK 06 AUDIO
TITLE "The Jungle Bit"
PERFORMER "Mongo Santamaria"
ISRC USFI86400436
INDEX 00 02:29:25
FILE "06 - The Jungle Bit.wav" WAVE
INDEX 01 00:00:00
TRACK 07 AUDIO
TITLE "My Sound"
PERFORMER "Mongo Santamaria"
ISRC USFI86400437
INDEX 00 06:46:73
FILE "07 - My Sound.wav" WAVE
INDEX 01 00:00:00
TRACK 08 AUDIO
TITLE "The Morning After"
PERFORMER "Mongo Santamaria"
ISRC USFI86400438
INDEX 00 02:59:25
FILE "08 - The Morning After.wav" WAVE
INDEX 01 00:00:00
TRACK 09 AUDIO
TITLE "Nothing For Nothing"
PERFORMER "Mongo Santamaria"
ISRC USFI86400439
INDEX 00 06:46:05
FILE "09 - Nothing For Nothing.wav" WAVE
INDEX 01 00:00:00
TRACK 10 AUDIO
TITLE "Para Ti"
PERFORMER "Mongo Santamaria"
ISRC USFI86400440
INDEX 00 07:19:05
FILE "10 - Para Ti.wav" WAVE
INDEX 01 00:00:00
01:18
257
Нет комментариев. Ваш будет первым!