Поиск

(Latin Jazz, Jazz Funk) Banda Black Rio - Super Nova Samba Funk - 2011, FLAC (tracks+.cue), lossless

Треклист:
Banda Black Rio - Super Nova Samba Funk

Жанр: Latin Jazz, Jazz Funk
Страна-производитель диска: EK
Год издания диска: 2011
Издатель (лейбл): Far Out Recordings
Номер по каталогу: FARO159CD
Страна: Brazil
Аудиокодек: FLAC (*.flac)
Тип рипа: tracks+.cue
Битрейт аудио: lossless
Продолжительность: 01:06:07
Источник (релизер): tiburon
Наличие сканов в содержимом раздачи: нет
01. Super Nova Samba Funk (9 No Samba) [03:24]
02. Louis Lane [03:48]
03. America do Sul [04:38]
04. Quem Vem La [03:47]
05. Samba Nova [04:10]
06. Som Preto [04:30]
07. Deixa Estar [04:37]
08. Nossa Jornada [04:59]
09. It's The Time [03:27]
10. Back to the Project [04:25]
11. Paname [03:13]
12. Isabela [03:54]
13. Lindos Olhos [03:44]
14. Final Feliz [04:40]
15. Irere [05:15]
16. Aos Pes do Redentor [03:28]
 
Лог создания рипа
Exact Audio Copy V1.0 beta 2 from 29. April 2011
EAC extraction logfile from 15. February 2012, 19:38
Banda Black Rio / Super Nova Samba Funk
Used drive : TSSTcorpCDDVDW TS-H653N Adapter: 2 ID: 2
Read mode : Secure
Utilize accurate stream : Yes
Defeat audio cache : Yes
Make use of C2 pointers : No
Read offset correction : 6
Overread into Lead-In and Lead-Out : No
Fill up missing offset samples with silence : Yes
Delete leading and trailing silent blocks : No
Null samples used in CRC calculations : Yes
Used interface : Native Win32 interface for Win NT & 2000
Gap handling : Appended to previous track
Used output format : User Defined Encoder
Selected bitrate : 1024 kBit/s
Quality : High
Add ID3 tag : No
Command line compressor : C:\Program Files\FLAC -\flac.exe
Additional command line options : -5 -V -T "COMMENT=shared by pastafari" -T "ARTIST=%artist%" -T "TITLE=%title%" -T "ALBUM=%albumtitle%" -T "DATE=%year%" -T "TRACKNUMBER=%tracknr%" -T "GENRE=%genre%" -T "PERFORMER=%albuminterpret%" -T "COMPOSER=%composer%"
TOC of the extracted CD
Track | Start | Length | Start sector | End sector
---------------------------------------------------------
1 | 0:00.00 | 3:26.30 | 0 | 15479
2 | 3:26.30 | 3:50.03 | 15480 | 32732
3 | 7:16.33 | 4:40.37 | 32733 | 53769
4 | 11:56.70 | 3:49.15 | 53770 | 70959
5 | 15:46.10 | 4:12.51 | 70960 | 89910
6 | 19:58.61 | 4:32.57 | 89911 | 110367
7 | 24:31.43 | 4:38.73 | 110368 | 131290
8 | 29:10.41 | 5:01.63 | 131291 | 153928
9 | 34:12.29 | 3:29.22 | 153929 | 169625
10 | 37:41.51 | 4:27.12 | 169626 | 189662
11 | 42:08.63 | 3:15.68 | 189663 | 204355
12 | 45:24.56 | 3:56.32 | 204356 | 222087
13 | 49:21.13 | 3:46.56 | 222088 | 239093
14 | 53:07.69 | 4:42.71 | 239094 | 260314
15 | 57:50.65 | 5:17.70 | 260315 | 284159
16 | 63:08.60 | 3:28.30 | 284160 | 299789
Track 1
Filename C:\pastafari\Banda Black Rio - Super Nova Samba Funk (2011) [FLAC]\01 - Super Nova Samba Funk (9 No Samba).wav
Pre-gap length 0:00:02.00
Peak level 100.0 %
Extraction speed 4.2 X
Track quality 100.0 %
Test CRC 90DE65F2
Copy CRC 90DE65F2
Accurately ripped (confidence 2) [49505FB1] (AR v2)
Copy OK
Track 2
Filename C:\pastafari\Banda Black Rio - Super Nova Samba Funk (2011) [FLAC]\02 - Louis Lane.wav
Pre-gap length 0:00:01.73
Peak level 100.0 %
Extraction speed 3.8 X
Track quality 99.9 %
Test CRC 9F1786E1
Copy CRC 9F1786E1
Accurately ripped (confidence 2) [D98C3679] (AR v2)
Copy OK
Track 3
Filename C:\pastafari\Banda Black Rio - Super Nova Samba Funk (2011) [FLAC]\03 - América do Sul.wav
Pre-gap length 0:00:01.73
Peak level 100.0 %
Extraction speed 4.4 X
Track quality 99.9 %
Test CRC 848C4E59
Copy CRC 848C4E59
Accurately ripped (confidence 2) [A4DC1040] (AR v2)
Copy OK
Track 4
Filename C:\pastafari\Banda Black Rio - Super Nova Samba Funk (2011) [FLAC]\04 - Quem Vem Lá.wav
Pre-gap length 0:00:01.73
Peak level 93.5 %
Extraction speed 5.6 X
Track quality 100.0 %
Test CRC B73D6C58
Copy CRC B73D6C58
Accurately ripped (confidence 2) [320D8189] (AR v2)
Copy OK
Track 5
Filename C:\pastafari\Banda Black Rio - Super Nova Samba Funk (2011) [FLAC]\05 - Samba Nova.wav
Pre-gap length 0:00:01.73
Peak level 100.0 %
Extraction speed 4.9 X
Track quality 99.9 %
Test CRC 349A76BC
Copy CRC 349A76BC
Accurately ripped (confidence 2) [B22EB8C5] (AR v2)
Copy OK
Track 6
Filename C:\pastafari\Banda Black Rio - Super Nova Samba Funk (2011) [FLAC]\06 - Som Preto.wav
Pre-gap length 0:00:01.73
Peak level 100.0 %
Extraction speed 6.4 X
Track quality 100.0 %
Test CRC 438BD2E8
Copy CRC 438BD2E8
Accurately ripped (confidence 2) [4679BDC3] (AR v2)
Copy OK
Track 7
Filename C:\pastafari\Banda Black Rio - Super Nova Samba Funk (2011) [FLAC]\07 - Deixa Estar.wav
Pre-gap length 0:00:01.73
Peak level 84.7 %
Extraction speed 6.9 X
Track quality 100.0 %
Test CRC E7E40842
Copy CRC E7E40842
Accurately ripped (confidence 2) [B4B6C5D7] (AR v2)
Copy OK
Track 8
Filename C:\pastafari\Banda Black Rio - Super Nova Samba Funk (2011) [FLAC]\08 - Nossa Jornada.wav
Pre-gap length 0:00:01.73
Peak level 100.0 %
Extraction speed 7.3 X
Track quality 100.0 %
Test CRC 4750FCA8
Copy CRC 4750FCA8
Accurately ripped (confidence 2) [D4835DE3] (AR v2)
Copy OK
Track 9
Filename C:\pastafari\Banda Black Rio - Super Nova Samba Funk (2011) [FLAC]\09 - It's The Time.wav
Pre-gap length 0:00:01.73
Peak level 100.0 %
Extraction speed 7.2 X
Track quality 100.0 %
Test CRC A3B155FA
Copy CRC A3B155FA
Accurately ripped (confidence 2) [4765F7A3] (AR v2)
Copy OK
Track 10
Filename C:\pastafari\Banda Black Rio - Super Nova Samba Funk (2011) [FLAC]\10 - Back to the Project.wav
Pre-gap length 0:00:01.73
Peak level 99.9 %
Extraction speed 7.7 X
Track quality 100.0 %
Test CRC 017E6FB4
Copy CRC 017E6FB4
Accurately ripped (confidence 2) [705DA3B3] (AR v2)
Copy OK
Track 11
Filename C:\pastafari\Banda Black Rio - Super Nova Samba Funk (2011) [FLAC]\11 - Paname.wav
Pre-gap length 0:00:01.73
Peak level 99.9 %
Extraction speed 7.5 X
Track quality 100.0 %
Test CRC C6E2F509
Copy CRC C6E2F509
Accurately ripped (confidence 2) [236E2BC0] (AR v2)
Copy OK
Track 12
Filename C:\pastafari\Banda Black Rio - Super Nova Samba Funk (2011) [FLAC]\12 - Isabela.wav
Pre-gap length 0:00:01.73
Peak level 100.0 %
Extraction speed 8.1 X
Track quality 100.0 %
Test CRC 05C10FFA
Copy CRC 05C10FFA
Accurately ripped (confidence 2) [10E25E2A] (AR v2)
Copy OK
Track 13
Filename C:\pastafari\Banda Black Rio - Super Nova Samba Funk (2011) [FLAC]\13 - Lindos Olhos.wav
Pre-gap length 0:00:01.73
Peak level 100.0 %
Extraction speed 6.5 X
Track quality 99.9 %
Test CRC 2F0246AF
Copy CRC 2F0246AF
Accurately ripped (confidence 2) [8B1BDD56] (AR v2)
Copy OK
Track 14
Filename C:\pastafari\Banda Black Rio - Super Nova Samba Funk (2011) [FLAC]\14 - Final Feliz.wav
Pre-gap length 0:00:01.73
Peak level 100.0 %
Extraction speed 8.7 X
Track quality 100.0 %
Test CRC 662F66A4
Copy CRC 662F66A4
Accurately ripped (confidence 2) [9618BD5F] (AR v2)
Copy OK
Track 15
Filename C:\pastafari\Banda Black Rio - Super Nova Samba Funk (2011) [FLAC]\15 - Irerê.wav
Pre-gap length 0:00:01.73
Peak level 99.3 %
Extraction speed 9.1 X
Track quality 100.0 %
Test CRC A52B3D7C
Copy CRC A52B3D7C
Accurately ripped (confidence 2) [EB219537] (AR v2)
Copy OK
Track 16
Filename C:\pastafari\Banda Black Rio - Super Nova Samba Funk (2011) [FLAC]\16 - Aos Pés do Redentor.wav
Pre-gap length 0:00:01.73
Peak level 83.1 %
Extraction speed 8.8 X
Track quality 100.0 %
Test CRC 278E4BB4
Copy CRC 278E4BB4
Accurately ripped (confidence 2) [1DD7678C] (AR v2)
Copy OK
All tracks accurately ripped
No errors occurred
End of status report
==== Log checksum 4367CBA823F4D97E4430CC4FC179D890847A55BEFF17F0C3ECF67170DF5DF4C1 ====
 
Содержание индексной карты (.CUE)
REM GENRE
REM DATE
REM DISCID E00F9D10
REM COMMENT "ExactAudioCopy v0.99pb4"
PERFORMER "Banda Black Rio"
TITLE "Super Nova Samba Funk"
FILE "01 - Super Nova Samba Funk (9 No Samba).wav" WAVE
TRACK 01 AUDIO
TITLE "Super Nova Samba Funk (9 No Samba)"
PERFORMER "Banda Black Rio"
INDEX 01 00:00:00
TRACK 02 AUDIO
TITLE "Louis Lane"
PERFORMER "Banda Black Rio"
INDEX 00 03:24:32
FILE "02 - Louis Lane.wav" WAVE
INDEX 01 00:00:00
TRACK 03 AUDIO
TITLE "America do Sul"
PERFORMER "Banda Black Rio"
INDEX 00 03:48:05
FILE "03 - America do Sul.wav" WAVE
INDEX 01 00:00:00
TRACK 04 AUDIO
TITLE "Quem Vem La"
PERFORMER "Banda Black Rio"
INDEX 00 04:38:39
FILE "04 - Quem Vem La.wav" WAVE
INDEX 01 00:00:00
TRACK 05 AUDIO
TITLE "Samba Nova"
PERFORMER "Banda Black Rio"
INDEX 00 03:47:17
FILE "05 - Samba Nova.wav" WAVE
INDEX 01 00:00:00
TRACK 06 AUDIO
TITLE "Som Preto"
PERFORMER "Banda Black Rio"
INDEX 00 04:10:53
FILE "06 - Som Preto.wav" WAVE
INDEX 01 00:00:00
TRACK 07 AUDIO
TITLE "Deixa Estar"
PERFORMER "Banda Black Rio"
INDEX 00 04:30:59
FILE "07 - Deixa Estar.wav" WAVE
INDEX 01 00:00:00
TRACK 08 AUDIO
TITLE "Nossa Jornada"
PERFORMER "Banda Black Rio"
INDEX 00 04:37:00
FILE "08 - Nossa Jornada.wav" WAVE
INDEX 01 00:00:00
TRACK 09 AUDIO
TITLE "It's The Time"
PERFORMER "Banda Black Rio"
INDEX 00 04:59:65
FILE "09 - It's The Time.wav" WAVE
INDEX 01 00:00:00
TRACK 10 AUDIO
TITLE "Back to the Project"
PERFORMER "Banda Black Rio"
INDEX 00 03:27:24
FILE "10 - Back to the Project.wav" WAVE
INDEX 01 00:00:00
TRACK 11 AUDIO
TITLE "Paname"
PERFORMER "Banda Black Rio"
INDEX 00 04:25:14
FILE "11 - Paname.wav" WAVE
INDEX 01 00:00:00
TRACK 12 AUDIO
TITLE "Isabela"
PERFORMER "Banda Black Rio"
INDEX 00 03:13:70
FILE "12 - Isabela.wav" WAVE
INDEX 01 00:00:00
TRACK 13 AUDIO
TITLE "Lindos Olhos"
PERFORMER "Banda Black Rio"
INDEX 00 03:54:34
FILE "13 - Lindos Olhos.wav" WAVE
INDEX 01 00:00:00
TRACK 14 AUDIO
TITLE "Final Feliz"
PERFORMER "Banda Black Rio"
INDEX 00 03:44:58
FILE "14 - Final Feliz.wav" WAVE
INDEX 01 00:00:00
TRACK 15 AUDIO
TITLE "Irere"
PERFORMER "Banda Black Rio"
INDEX 00 04:40:73
FILE "15 - Irere.wav" WAVE
INDEX 01 00:00:00
TRACK 16 AUDIO
TITLE "Aos Pes do Redentor"
PERFORMER "Banda Black Rio"
INDEX 00 05:15:72
FILE "16 - Aos Pes do Redentor.wav" WAVE
INDEX 01 00:00:00
01:47
275
Нет комментариев. Ваш будет первым!