Поиск

(Latin Jazz) Harvie S - Texas Rumba - 2004, APE (image+.cue), lossless

(Latin Jazz) Harvie S - Texas Rumba - 2004, APE (image+.cue), lossless
Треклист:
Harvie S - Texas Rumba Жанр: Latin Jazz
Год выпуска диска: 2004
Производитель диска: Zoho Records
Аудио кодек: APE
Тип рипа: image+.cue
Битрейт аудио: lossless
Продолжительность: 58:33
Трэклист:
01. Texas Rumba [0:03:43.74]
02. Good News [0:06:30.26]
03. From Now On [0:06:17.15]
04. Curved Corners [0:07:06.60]
05. Blindside [0:07:28.62]
06. Before [0:02:16.15]
07. Momentano [0:05:38.06]
08. Facil [0:05:46.12]
09. Monk's Mood [0:02:03.48]
10. Underneath It All [0:10:41.42]
11. Floating [0:00:59.54]
Состав:
Harvie S - acoustic bass
Daniel Kelly - piano
Scott Robert Avidon - tenor & soprano sax
Renato Thomas - percussion
Adam Weber - drums
Gregory Rivkin - trumpet
Рип от JamesBrown ,HQS.
 
EAC extraction logfile
Exact Audio Copy V0.99 prebeta 4 from 23. January 2008
EAC extraction logfile from 12. December 2008, 12:32
Harvie S / Texas Rumba
Used drive : PLEXTOR DVDR PX-750A Adapter: 2 ID: 1
Read mode : Secure
Utilize accurate stream : Yes
Defeat audio cache : Yes
Make use of C2 pointers : No
Read offset correction : 102
Overread into Lead-In and Lead-Out : No
Fill up missing offset samples with silence : Yes
Delete leading and trailing silent blocks : No
Null samples used in CRC calculations : Yes
Used interface : Native Win32 interface for Win NT & 2000
Used output format : Monkey's Audio Lossless Encoder v3.99 DLL
Sample format : Normal Lossless Compression
TOC of the extracted CD
Track | Start | Length | Start sector | End sector
---------------------------------------------------------
1 | 0:00.00 | 3:43.74 | 0 | 16798
2 | 3:43.74 | 6:30.26 | 16799 | 46074
3 | 10:14.25 | 6:17.15 | 46075 | 74364
4 | 16:31.40 | 7:06.60 | 74365 | 106374
5 | 23:38.25 | 7:28.62 | 106375 | 140036
6 | 31:07.12 | 2:16.15 | 140037 | 150251
7 | 33:23.27 | 5:38.06 | 150252 | 175607
8 | 39:01.33 | 5:46.12 | 175608 | 201569
9 | 44:47.45 | 2:03.48 | 201570 | 210842
10 | 46:51.18 | 10:41.42 | 210843 | 258959
11 | 57:32.60 | 0:59.54 | 258960 | 263438
Range status and errors
Selected range
Filename C:Harvie S - Texas Rumba.ape
Peak level 95.6 %
Range quality 100.0 %
Copy CRC 1ADE875C
Copy OK
No errors occurred
End of status report
 
Audiochecker logfile
Started at: среда, 19. 05. 2010. - 9:41.57
1 file found
1 -===- D:\Temp\Images\1\Harvey S.Texas Rumba.EAC.APE.Zoho\Harvie S - Texas Rumba.ape
Extracted successfully
Conclusion: this track is CDDA with probability 100%
Tempfile successfully deleted.
Finished at: среда, 19. 05. 2010. - 9:48.04 (operation time: 0:06.06)
Продолжаем знакомиться с творчеством басиста Харви Чёрного. Предпрослушка Приятных впечатлений!
16:01
384
Нет комментариев. Ваш будет первым!