Поиск

(Latin Jazz, Fusion) [CD] Hermeto Pascoal e Grupo - Festa dos Deuses - 1992 (2014 Japan Edition), FLAC (tracks+.cue), lossless

(Latin Jazz, Fusion) [CD] Hermeto Pascoal e Grupo - Festa dos Deuses - 1992 (2014 Japan Edition), FLAC (tracks+.cue), lossless
Треклист:
Hermeto Pascoal e Grupo - Festa dos Deuses
Жанр: Latin Jazz, Fusion
Носитель: CD
Страна-производитель диска (релиза): Япония
Год издания: 2014
Издатель (лейбл): Mercury/Universal
Номер по каталогу: UICY-76460
Страна исполнителя (группы): Бразилия
Аудиокодек: FLAC (*.flac)
Тип рипа: tracks+.cue
Битрейт аудио: lossless
Продолжительность: 62:00
Источник (релизер): kotetsu29292929 (what)
Наличие сканов в содержимом раздачи: да
Треклист:
01. O Galo do Airan (Pascoal) - 6:03
02. Rainha da Pedra Azul (Pascoal) - 4:54
03. Viajando pelo Brasil (Pascoal) - 5:01
04. O Farol que nos Guia (Pascoal) - 4:21
05. Pensamento Positivo - 1:07
06. Peneirando Agua (Pascoal) - 4:23
07. Cancao no Paiol em Curitiba (Pascoal) - 4:02
08. Aula de Natacao (F.Pascoal) - 0:58
09. Tres Coisas (Lago) - 1:44
10. Irmaos Latinos (Pascoal) - 4:25
11. Depois do Baile (Pascoal) - 4:44
12. Quando as Aves se Encontram, Nasce o Som (Pascoal) - 1:38
13. Round Midnight (Hanighen-Williams-Monk) - 4:43
14. Fazenda Nova (Pascoal) - 4:12
15. Ginga Carioca (Pascoal) - 4:18
16. Chapeu de Baeta (Pascoal) - 5:27
Состав:
Hermeto Pascoal - piano, keyboards, kettle, winding horn, cavaquinho, percussion
Carlos Malta - flutes, saxophones
Jovino Neto - piano, keyboards, flute
Itibere Zwarg - bass
Marcio Bahia - drums, percussion
Fabio Pascoal, Pernambuco - percussion
Luciana Souza - vocals
Recorded at PolyGram Studios, Rio de Janeiro in January 1992.
 
Лог создания рипа
Exact Audio Copy V1.0 beta 3 from 29. August 2011
EAC extraction logfile from 9. June 2015, 22:47
Hermeto Pascoal / Festa Dos Deuses
Used drive : HL-DT-STBD-RE BH14NS48 Adapter: 1 ID: 0
Read mode : Secure
Utilize accurate stream : Yes
Defeat audio cache : Yes
Make use of C2 pointers : No
Read offset correction : 6
Overread into Lead-In and Lead-Out : No
Fill up missing offset samples with silence : Yes
Delete leading and trailing silent blocks : No
Null samples used in CRC calculations : Yes
Used interface : Native Win32 interface for Win NT & 2000
Gap handling : Appended to previous track
Used output format : User Defined Encoder
Selected bitrate : 896 kBit/s
Quality : High
Add ID3 tag : No
Command line compressor : C:\Program Files\Exact Audio Copy\flac.exe
Additional command line options : -8 -V -T "ARTIST=%artist%" -T "TITLE=%title%" -T "ALBUM=%albumtitle%" -T "DATE=%year%" -T "TRACKNUMBER=%tracknr%" -T "GENRE=%genre%" -T "PERFORMER=%albuminterpret%" -T "COMPOSER=%composer%" %haslyrics%--tag-from-file=LYRICS="%lyricsfile%"%haslyrics% -T "ALBUMARTIST=%albumartist%" -T "DISCNUMBER=%cdnumber%" -T "TOTALDISCS=%totalcds%" -T "TOTALTRACKS=%numtracks%" -T "COMMENT=%comment%" %source% -o %dest%
TOC of the extracted CD
Track | Start | Length | Start sector | End sector
---------------------------------------------------------
1 | 0:00.00 | 6:03.02 | 0 | 27226
2 | 6:03.02 | 4:53.55 | 27227 | 49256
3 | 10:56.57 | 5:00.70 | 49257 | 71826
4 | 15:57.52 | 4:20.45 | 71827 | 91371
5 | 20:18.22 | 1:07.00 | 91372 | 96396
6 | 21:25.22 | 4:23.35 | 96397 | 116156
7 | 25:48.57 | 4:01.73 | 116157 | 134304
8 | 29:50.55 | 0:57.67 | 134305 | 138646
9 | 30:48.47 | 1:43.43 | 138647 | 146414
10 | 32:32.15 | 4:24.62 | 146415 | 166276
11 | 36:57.02 | 4:43.55 | 166277 | 187556
12 | 41:40.57 | 1:37.50 | 187557 | 194881
13 | 43:18.32 | 4:42.68 | 194882 | 216099
14 | 48:01.25 | 4:12.32 | 216100 | 235031
15 | 52:13.57 | 4:18.23 | 235032 | 254404
16 | 56:32.05 | 5:27.22 | 254405 | 278951
Track 1
Filename C:\EAC\01 - O Galo do Airan.wav
Pre-gap length 0:00:02.00
Peak level 99.9 %
Extraction speed 1.1 X
Track quality 100.0 %
Test CRC FFF3AEFE
Copy CRC FFF3AEFE
Accurately ripped (confidence 1) [20D5A80B] (AR v2)
Copy OK
Track 2
Filename C:\EAC\02 - Rainha da Pedra Azul.wav
Pre-gap length 0:00:01.32
Peak level 88.6 %
Extraction speed 1.2 X
Track quality 100.0 %
Test CRC 48540C02
Copy CRC 48540C02
Accurately ripped (confidence 1) [0267716F] (AR v2)
Copy OK
Track 3
Filename C:\EAC\03 - Viajando pelo Brasil.wav
Pre-gap length 0:00:00.40
Peak level 99.9 %
Extraction speed 1.4 X
Track quality 100.0 %
Test CRC 3A273770
Copy CRC 3A273770
Accurately ripped (confidence 1) [463CDF71] (AR v2)
Copy OK
Track 4
Filename C:\EAC\04 - O Farol que nos Guia.wav
Pre-gap length 0:00:01.10
Peak level 85.0 %
Extraction speed 1.3 X
Track quality 99.9 %
Test CRC 70CA6C83
Copy CRC 70CA6C83
Accurately ripped (confidence 1) [A7C8F228] (AR v2)
Copy OK
Track 5
Filename C:\EAC\05 - Pensamento Positivo.wav
Peak level 45.4 %
Extraction speed 1.1 X
Track quality 100.0 %
Test CRC 9DC78534
Copy CRC 9DC78534
Accurately ripped (confidence 1) [90367240] (AR v2)
Copy OK
Track 6
Filename C:\EAC\06 - Peneirando Água.wav
Pre-gap length 0:00:00.57
Peak level 99.9 %
Extraction speed 1.6 X
Track quality 100.0 %
Test CRC C8F9B907
Copy CRC C8F9B907
Accurately ripped (confidence 1) [DB8C4C8E] (AR v2)
Copy OK
Track 7
Filename C:\EAC\07 - Canção no Paiol em Curitiba.wav
Pre-gap length 0:00:01.05
Peak level 99.2 %
Extraction speed 1.6 X
Track quality 100.0 %
Test CRC 40D6010F
Copy CRC 40D6010F
Accurately ripped (confidence 1) [27D30D8F] (AR v2)
Copy OK
Track 8
Filename C:\EAC\08 - Aula de Natação.wav
Pre-gap length 0:00:00.40
Peak level 49.0 %
Extraction speed 1.2 X
Track quality 100.0 %
Test CRC 24DAF5D9
Copy CRC 24DAF5D9
Accurately ripped (confidence 1) [25724C88] (AR v2)
Copy OK
Track 9
Filename C:\EAC\09 - Três Coisas.wav
Peak level 44.5 %
Extraction speed 1.1 X
Track quality 99.8 %
Test CRC 5F1AD51B
Copy CRC 5F1AD51B
Accurately ripped (confidence 1) [9B5A02F3] (AR v2)
Copy OK
Track 10
Filename C:\EAC\10 - Irmãos Latinos.wav
Pre-gap length 0:00:00.23
Peak level 95.4 %
Extraction speed 1.8 X
Track quality 100.0 %
Test CRC 3F471792
Copy CRC 3F471792
Accurately ripped (confidence 1) [295D5719] (AR v2)
Copy OK
Track 11
Filename C:\EAC\11 - Depois do Baile.wav
Pre-gap length 0:00:00.67
Peak level 91.7 %
Extraction speed 1.9 X
Track quality 100.0 %
Test CRC C345DDCB
Copy CRC C345DDCB
Accurately ripped (confidence 1) [0FB33D16] (AR v2)
Copy OK
Track 12
Filename C:\EAC\12 - Quando as Aves se Encontram, Nasce o Som.wav
Peak level 91.7 %
Extraction speed 1.6 X
Track quality 100.0 %
Test CRC 18A02E05
Copy CRC 18A02E05
Accurately ripped (confidence 1) [BA025AEB] (AR v2)
Copy OK
Track 13
Filename C:\EAC\13 - Round Midnight.wav
Pre-gap length 0:00:00.72
Peak level 87.1 %
Extraction speed 2.0 X
Track quality 100.0 %
Test CRC 73E1D8F4
Copy CRC 73E1D8F4
Accurately ripped (confidence 1) [84417B61] (AR v2)
Copy OK
Track 14
Filename C:\EAC\14 - Fazenda Nova.wav
Pre-gap length 0:00:01.08
Peak level 93.1 %
Extraction speed 2.0 X
Track quality 100.0 %
Test CRC B55EDCD0
Copy CRC B55EDCD0
Accurately ripped (confidence 1) [F41178E9] (AR v2)
Copy OK
Track 15
Filename C:\EAC\15 - Ginga Carioca.wav
Peak level 89.9 %
Extraction speed 1.8 X
Track quality 99.9 %
Test CRC A91E5FB6
Copy CRC A91E5FB6
Accurately ripped (confidence 1) [01F480C4] (AR v2)
Copy OK
Track 16
Filename C:\EAC\16 - Chapéu de Baeta.wav
Peak level 90.1 %
Extraction speed 2.2 X
Track quality 100.0 %
Test CRC EDD47640
Copy CRC EDD47640
Accurately ripped (confidence 1) [70D338B0] (AR v2)
Copy OK
All tracks accurately ripped
No errors occurred
End of status report
==== Log checksum F6CDEA454AEB979EED711247254CE467700D19DA90BCF8A9DB0E92C2A23F8DB2 ====
 
Содержание индексной карты (.CUE)
REM GENRE Jazz
REM DATE 1992
REM DISCID E30E8710
REM COMMENT "ExactAudioCopy v1.0b3"
CATALOG 4988011360985
PERFORMER "Hermeto Pascoal"
TITLE "Festa dos Deuses"
FILE "01 - O Galo do Airan.wav" WAVE
TRACK 01 AUDIO
TITLE "O Galo do Airan"
PERFORMER "Hermeto Pascoal"
INDEX 01 00:00:00
TRACK 02 AUDIO
TITLE "Rainha da Pedra Azul"
PERFORMER "Hermeto Pascoal"
INDEX 00 06:01:45
FILE "02 - Rainha da Pedra Azul.wav" WAVE
INDEX 01 00:00:00
TRACK 03 AUDIO
TITLE "Viajando pelo Brasil"
PERFORMER "Hermeto Pascoal"
INDEX 00 04:53:15
FILE "03 - Viajando pelo Brasil.wav" WAVE
INDEX 01 00:00:00
TRACK 04 AUDIO
TITLE "O Farol que nos Guia"
PERFORMER "Hermeto Pascoal"
INDEX 00 04:59:60
FILE "04 - O Farol que nos Guia.wav" WAVE
INDEX 01 00:00:00
FILE "05 - Pensamento Positivo.wav" WAVE
TRACK 05 AUDIO
TITLE "Pensamento Positivo"
PERFORMER "Hermeto Pascoal"
INDEX 01 00:00:00
TRACK 06 AUDIO
TITLE "Peneirando Agua"
PERFORMER "Hermeto Pascoal"
INDEX 00 01:06:18
FILE "06 - Peneirando Agua.wav" WAVE
INDEX 01 00:00:00
TRACK 07 AUDIO
TITLE "Cancao no Paiol em Curitiba"
PERFORMER "Hermeto Pascoal"
INDEX 00 04:22:30
FILE "07 - Cancao no Paiol em Curitiba.wav" WAVE
INDEX 01 00:00:00
TRACK 08 AUDIO
TITLE "Aula de Natacao"
PERFORMER "Hermeto Pascoal"
INDEX 00 04:01:33
FILE "08 - Aula de Natacao.wav" WAVE
INDEX 01 00:00:00
FILE "09 - Tres Coisas.wav" WAVE
TRACK 09 AUDIO
TITLE "Tres Coisas"
PERFORMER "Hermeto Pascoal"
INDEX 01 00:00:00
TRACK 10 AUDIO
TITLE "Irmaos Latinos"
PERFORMER "Hermeto Pascoal"
INDEX 00 01:43:20
FILE "10 - Irmaos Latinos.wav" WAVE
INDEX 01 00:00:00
TRACK 11 AUDIO
TITLE "Depois do Baile"
PERFORMER "Hermeto Pascoal"
INDEX 00 04:23:70
FILE "11 - Depois do Baile.wav" WAVE
INDEX 01 00:00:00
FILE "12 - Quando as Aves se Encontram, Nasce o Som.wav" WAVE
TRACK 12 AUDIO
TITLE "Quando as Aves se Encontram, Nasce o Som"
PERFORMER "Hermeto Pascoal"
INDEX 01 00:00:00
TRACK 13 AUDIO
TITLE "Round Midnight"
PERFORMER "Hermeto Pascoal"
INDEX 00 01:36:53
FILE "13 - Round Midnight.wav" WAVE
INDEX 01 00:00:00
TRACK 14 AUDIO
TITLE "Fazenda Nova"
PERFORMER "Hermeto Pascoal"
INDEX 00 04:41:60
FILE "14 - Fazenda Nova.wav" WAVE
INDEX 01 00:00:00
FILE "15 - Ginga Carioca.wav" WAVE
TRACK 15 AUDIO
TITLE "Ginga Carioca"
PERFORMER "Hermeto Pascoal"
INDEX 01 00:00:00
FILE "16 - Chapeu de Baeta.wav" WAVE
TRACK 16 AUDIO
TITLE "Chapeu de Baeta"
PERFORMER "Hermeto Pascoal"
INDEX 01 00:00:00
 
Отчет CUETools
[CUETools log; Date: 21.06.2015 21:17:24; Version: 2.1.5]
[CTDB TOCID: UMfF.gGy0ao9ofQL_D1AQkGyozw-] found.
Track | CTDB Status
1 | (4/4) Accurately ripped
2 | (4/4) Accurately ripped
3 | (4/4) Accurately ripped
4 | (4/4) Accurately ripped
5 | (4/4) Accurately ripped
6 | (4/4) Accurately ripped
7 | (4/4) Accurately ripped
8 | (4/4) Accurately ripped
9 | (4/4) Accurately ripped
10 | (4/4) Accurately ripped
11 | (4/4) Accurately ripped
12 | (4/4) Accurately ripped
13 | (4/4) Accurately ripped
14 | (4/4) Accurately ripped
15 | (4/4) Accurately ripped
16 | (3/4) Accurately ripped
[AccurateRip ID: 0024b1c9-01acc9a5-e30e8710] found.
Track [ CRC | V2 ] Status
01 [ca89d782|20d5a80b] (0+1/3) Accurately ripped
02 [1e1ad647|0267716f] (0+1/3) Accurately ripped
03 [e8dbec06|463cdf71] (0+1/3) Accurately ripped
04 [354c5fca|a7c8f228] (0+1/3) Accurately ripped
05 [4d4e21af|90367240] (0+1/3) Accurately ripped
06 [2343b430|db8c4c8e] (0+1/3) Accurately ripped
07 [00c8c6dc|27d30d8f] (0+1/3) Accurately ripped
08 [7cd92c95|25724c88] (0+1/3) Accurately ripped
09 [70a02121|9b5a02f3] (0+1/3) Accurately ripped
10 [4e7d5ea2|295d5719] (0+1/3) Accurately ripped
11 [ce6d4910|0fb33d16] (0+1/3) Accurately ripped
12 [13efa5d9|ba025aeb] (0+1/3) Accurately ripped
13 [31fd53f0|84417b61] (0+1/3) Accurately ripped
14 [7452eb1c|f41178e9] (0+1/3) Accurately ripped
15 [9567de40|01f480c4] (0+1/3) Accurately ripped
16 [f14d7cdd|70d338b0] (0+1/3) Accurately ripped
Offsetted by -848:
01 [5abe7692] (1/3) Accurately ripped
02 [715bfbb7] (1/3) Accurately ripped
03 [6c452b66] (1/3) Accurately ripped
04 [8c7b967a] (1/3) Accurately ripped
05 [3b568e8f] (1/3) Accurately ripped
06 [8f07b0d0] (1/3) Accurately ripped
07 [7935717c] (1/3) Accurately ripped
08 [ae54e42f] (1/3) Accurately ripped
09 [29215a87] (1/3) Accurately ripped
10 [203e4022] (1/3) Accurately ripped
11 [72283b97] (1/3) Accurately ripped
12 [78fe7f12] (1/3) Accurately ripped
13 [d44e7400] (1/3) Accurately ripped
14 [65ed6b21] (1/3) Accurately ripped
15 [84fa2859] (1/3) Accurately ripped
16 [21950467] (1/3) Accurately ripped
Track Peak [ CRC32 ] [W/O NULL] [ LOG ]
-- 99,9 [A1BE0B7F] [3CCB6008]
01 99,9 [FFF3AEFE] [09539C8D] CRC32
02 88,6 [48540C02] [0072D3B5] CRC32
03 99,9 [3A273770] [977F3F0C] CRC32
04 85,0 [70CA6C83] [E7071A03] CRC32
05 45,4 [9DC78534] [360B9047] CRC32
06 99,9 [C8F9B907] [4B16DAF6] CRC32
07 99,2 [40D6010F] [5FB7D052] CRC32
08 49,0 [24DAF5D9] [D5F9F166] CRC32
09 44,5 [5F1AD51B] [6688E000] CRC32
10 95,4 [3F471792] [36404151] CRC32
11 91,7 [C345DDCB] [5A4BBF11] CRC32
12 91,7 [18A02E05] [53033957] CRC32
13 87,1 [73E1D8F4] [F5CE0E52] CRC32
14 93,1 [B55EDCD0] [74271CDB] CRC32
15 89,9 [A91E5FB6] [C97CD2F6] CRC32
16 90,1 [EDD47640] [05B3C631] CRC32
19:09
243
Нет комментариев. Ваш будет первым!