Поиск

(Latin Jazz) Edmar Castaneda — Cuarto De Colores — 2005, FLAC (image+.cue), lossless

(Latin Jazz) Edmar Castaneda — Cuarto De Colores — 2005, FLAC (image+.cue), lossless
Треклист:
Edmar Castaneda — Cuarto De Colores
Жанр: Latin Jazz
Год выпуска диска: 2005
Label: Edmar Castaneda
Аудио кодек: FLAC
Тип рипа: image+.cue
Битрейт аудио: lossless
Продолжительность: 50:46
Трeклист:
01. Sonrisas (3:19)
02. Andrea (4:02)
03. Autumn Leaves (3:38)
04. Cuarto De Colores (5:52)
05. Negrita (1:10)
06. Madrugaga Azul (5:11)
07. Amen (0:38)
08. Alfonsina Y El Mar (5:57)
09. Afrojoropo (4:34)
10. El Camino (4:39)
11. Media Luna (1:03)
12. Buleria (5:48)
13. Ginebra (4:55)
Personnel:
Edmar Castaneda - harp
Paquito D'Rivera - clarinet
Oscar Staganaro - bass
Ari Hoenig - drums
Pedro Martinez - conga, bata, vocal
Hector Del Curto - bandoneon
Mike Rodriguez - trumpet
Marshall Gilkes - trombone
Dave Silliman - drums, percussion
Сканы: 300 dpi
   Автор рипа barin99
 
Отчет ЕАС
Exact Audio Copy V0.99 prebeta 4 from 23. January 2008
EAC extraction logfile from 16. February 2010, 19:26
Edmar Castaneda / Cuarto De Colores
Used drive : HL-DT-STRW/DVD GCC-4242N Adapter: 1 ID: 0
Read mode : Secure
Utilize accurate stream : Yes
Defeat audio cache : Yes
Make use of C2 pointers : No
Read offset correction : 102
Overread into Lead-In and Lead-Out : No
Fill up missing offset samples with silence : Yes
Delete leading and trailing silent blocks : No
Null samples used in CRC calculations : Yes
Used interface : Native Win32 interface for Win NT & 2000
Used output format : Internal WAV Routines
Sample format : 44.100 Hz; 16 Bit; Stereo
TOC of the extracted CD
Track | Start | Length | Start sector | End sector
---------------------------------------------------------
1 | 0:00.00 | 3:19.02 | 0 | 14926
2 | 3:19.02 | 4:02.04 | 14927 | 33080
3 | 7:21.06 | 3:37.71 | 33081 | 49426
4 | 10:59.02 | 5:52.31 | 49427 | 75857
5 | 16:51.33 | 1:09.46 | 75858 | 81078
6 | 18:01.04 | 5:10.51 | 81079 | 104379
7 | 23:11.55 | 0:38.37 | 104380 | 107266
8 | 23:50.17 | 5:57.10 | 107267 | 134051
9 | 29:47.27 | 4:34.29 | 134052 | 154630
10 | 34:21.56 | 4:39.14 | 154631 | 175569
11 | 39:00.70 | 1:02.49 | 175570 | 180268
12 | 40:03.44 | 5:47.62 | 180269 | 206355
13 | 45:51.31 | 4:54.57 | 206356 | 228462
Range status and errors
Selected range
Filename C:\_\EAC_Out\Out\Edmar Castaneda - Cuarto De Colores\Edmar Castaneda - Cuarto De Colores.wav
Peak level 96.6 %
Range quality 100.0 %
Copy CRC 23835146
Copy OK
No errors occurred
AccurateRip summary
Track 1 accurately ripped (confidence 2) [3E20936E]
Track 2 accurately ripped (confidence 2) [97755AA6]
Track 3 accurately ripped (confidence 2) [D0A0FCC9]
Track 4 accurately ripped (confidence 2) [56F4D63D]
Track 5 accurately ripped (confidence 2) [9ADE5556]
Track 6 accurately ripped (confidence 2) [584B9103]
Track 7 accurately ripped (confidence 2) [217C78A8]
Track 8 accurately ripped (confidence 2) [640D64AD]
Track 9 accurately ripped (confidence 2) [3CD4A3FE]
Track 10 accurately ripped (confidence 2) [BD51952F]
Track 11 accurately ripped (confidence 2) [B71BBDC9]
Track 12 accurately ripped (confidence 2) [17A65B32]
Track 13 not present in database
12 track(s) accurately ripped
1 track(s) not present in the AccurateRip database
Some tracks could not be verified as accurate
End of status report
   :arrow: Мои раздачи на трекере
12:58
432
Нет комментариев. Ваш будет первым!