Поиск

(Latin Jazz) Eddie Palmieri - Arete - 1995, FLAC (image+.cue), lossless

(Latin Jazz) Eddie Palmieri - Arete - 1995, FLAC (image+.cue), lossless
Треклист:
Eddie Palmieri – Arete
Жанр: Latin Jazz
Год издания: 1995
Издатель (лейбл): RMM Records
Номер по каталогу: CDZ81657
Аудиокодек: FLAC (*.flac)
Тип рипа: image+.cue
Битрейт аудио: lossless
Продолжительность: 51:38
Rip by bINkI
Наличие сканов в содержимом раздачи: да
Треклист:
01. Don't Stop The Train (6:44)
02. Definitely In (5:08)
03. Sisters (9:15)
04. Crew (4:00)
05. Waltz For My Grandchildren (7:53)
06. Caribbean Mood (5:57)
07. Oblique (5:49)
08. Sixes In Motion (6:52)
 
 
Лог создания рипа
Exact Audio Copy V0.99 prebeta 4 from 23. January 2008
EAC extraction logfile from 8. May 2009, 16:17
Eddie Palmieri / Arete
Used drive : HL-DT-STDVD-RAM GH22NP20 Adapter: 1 ID: 1
Read mode : Secure
Utilize accurate stream : Yes
Defeat audio cache : Yes
Make use of C2 pointers : No
Read offset correction : 102
Overread into Lead-In and Lead-Out : No
Fill up missing offset samples with silence : Yes
Delete leading and trailing silent blocks : No
Null samples used in CRC calculations : Yes
Used interface : Installed external ASPI interface
Used output format : Internal WAV Routines
Sample format : 44.100 Hz; 16 Bit; Stereo
Use compression offset : 102
TOC of the extracted CD
Track | Start | Length | Start sector | End sector
---------------------------------------------------------
1 | 0:00.00 | 6:44.10 | 0 | 30309
2 | 6:44.10 | 5:08.27 | 30310 | 53436
3 | 11:52.37 | 9:14.38 | 53437 | 95024
4 | 21:07.00 | 4:00.07 | 95025 | 113031
5 | 25:07.07 | 7:53.05 | 113032 | 148511
6 | 33:00.12 | 5:57.13 | 148512 | 175299
7 | 38:57.25 | 5:48.45 | 175300 | 201444
8 | 44:45.70 | 6:52.27 | 201445 | 232371
Range status and errors
Selected range
Filename C:\Documents and Settings\Proprietario.RT\Desktop\R\Eddie Palmieri - Arete.wav
Peak level 100.0 %
Range quality 100.0 %
Copy CRC 21FF5268
Copy OK
No errors occurred
End of status report
 
Содержание индексной карты (.CUE)
REM GENRE Latin Jazz
REM DATE 1995
REM DISCID 750C1A08
REM COMMENT "ExactAudioCopy v0.99pb4"
PERFORMER "Eddie Palmieri"
TITLE "Arete"
FILE "Eddie Palmieri - Arete.flac" WAVE
TRACK 01 AUDIO
TITLE "Don't Stop The Train"
PERFORMER "Eddie Palmieri"
INDEX 01 00:00:00
TRACK 02 AUDIO
TITLE "Definitely In"
PERFORMER "Eddie Palmieri"
INDEX 00 06:41:65
INDEX 01 06:44:10
TRACK 03 AUDIO
TITLE "Sisters"
PERFORMER "Eddie Palmieri"
INDEX 00 11:50:17
INDEX 01 11:52:37
TRACK 04 AUDIO
TITLE "Crew"
PERFORMER "Eddie Palmieri"
INDEX 00 21:05:17
INDEX 01 21:07:00
TRACK 05 AUDIO
TITLE "Waltz For My Grandchildren"
PERFORMER "Eddie Palmieri"
INDEX 00 25:05:10
INDEX 01 25:07:07
TRACK 06 AUDIO
TITLE "Caribbean Mood"
PERFORMER "Eddie Palmieri"
INDEX 00 32:58:30
INDEX 01 33:00:12
TRACK 07 AUDIO
TITLE "Oblique"
PERFORMER "Eddie Palmieri"
INDEX 00 38:55:20
INDEX 01 38:57:25
TRACK 08 AUDIO
TITLE "Sixes In Motion"
PERFORMER "Eddie Palmieri"
INDEX 00 44:43:47
INDEX 01 44:45:70
 
CUETools log
[CUETools log; Date: 06.12.2012 9:38:03; Version: 2.0.9]
[CTDB TOCID: METcaBnRX0u2c5K3rrilWabXtqM-] found.
[ CTDBID ] Status
[0a95e534] (2/2) Accurately ripped
[AccurateRip ID: 00100359-006a9e08-750c1a08] found.
Track [ CRC ] Status
01 [0a799da4] (0/2) No match
02 [c3060cb9] (0/2) No match
03 [3c745eb0] (0/2) No match
04 [cace1ea9] (0/2) No match
05 [27baa5eb] (0/2) No match
06 [88308d6d] (0/2) No match
07 [0496b6be] (0/2) No match
08 [3aa77364] (0/2) No match
Offsetted by 5:
01 [7ee592b4] (2/2) Accurately ripped
02 [254d7920] (2/2) Accurately ripped
03 [5a4550cf] (2/2) Accurately ripped
04 [ed1eebe8] (2/2) Accurately ripped
05 [a18e89a9] (2/2) Accurately ripped
06 [137f7b5e] (2/2) Accurately ripped
07 [38fb4d7a] (2/2) Accurately ripped
08 [855ecd97] (2/2) Accurately ripped
Track Peak [ CRC32 ] [W/O NULL] [ LOG ]
-- 100,0 [21FF5268] [A3E2BE18] CRC32
01 100,0 [9C759554] [3D5908F9]
02 100,0 [FB73C9AF] [A014C960]
03 98,4 [27BC29AF] [CECD0200]
04 99,0 [03AA8CB3] [04C2A0E5]
05 99,2 [116930CD] [9A8F358B]
06 100,0 [8A202A49] [DFA2D7F6]
07 99,9 [A4188792] [6472D35D]
08 99,9 [6C1C83EC] [D1728DD1]
06:19
319
Нет комментариев. Ваш будет первым!