Поиск

(Latin Jazz, Cubano, Son) [CD] Cuba L.A. - Dos - 2000, FLAC (tracks+.cue), lossless

(Latin Jazz, Cubano, Son) [CD] Cuba L.A. - Dos - 2000, FLAC (tracks+.cue), lossless
Cuba L.A. - Dos
Жанр: Latin Jazz, Cubano, Son
Носитель: CD
Страна-производитель диска (релиза): США
Год издания: 2000
Издатель (лейбл): Narada World
Номер по каталогу: 72438-49659-2-1
Аудиокодек: FLAC (*.flac)
Тип рипа: tracks+.cue
Битрейт аудио: lossless
Продолжительность: 58:41
Источник (релизер): redacted
Наличие сканов в содержимом раздачи: нет
Треклист:
01. Kila Quique y Chocolate (4:33)
02. La Mora (3:46)
03. Lagrimas Negras (4:24)
04. El Guararei de Pastora (3:52)
05. Whisper Not (4:43)
06. Popurri de Congas (5:19)
07. Danzon Legrand (5:44)
08. La Mujer de Antonio (4:31)
09. Drume Negrita (3:54)
10. Guantanamera (6:10)
11. Delirio (7:12)
12. Semillas (4:33)
 
Лог создания рипа
X Lossless Decoder version 20151214 (149.1)
XLD extraction logfile from 2016-08-04 17:58:04 -0700
Cuba L.A. / Dos
Used drive : HL-DT-ST DVDRAM GP10NB20 (revision 1.04)
Media type : Pressed CD
Ripper mode : XLD Secure Ripper
Disable audio cache : OK for the drive with a cache less than 1375KiB
Make use of C2 pointers : NO
Read offset correction : 6
Max retry count : 100
Gap status : Analyzed, Appended (except HTOA)
TOC of the extracted CD
Track | Start | Length | Start sector | End sector
---------------------------------------------------------
1 | 00:00:00 | 04:32:40 | 0 | 20439
2 | 04:32:40 | 03:45:55 | 20440 | 37369
3 | 08:18:20 | 04:23:55 | 37370 | 57149
4 | 12:42:00 | 03:52:20 | 57150 | 74569
5 | 16:34:20 | 04:43:34 | 74570 | 95828
6 | 21:17:54 | 05:19:11 | 95829 | 119764
7 | 26:36:65 | 05:44:17 | 119765 | 145581
8 | 32:21:07 | 04:30:45 | 145582 | 165876
9 | 36:51:52 | 03:53:68 | 165877 | 183419
10 | 40:45:45 | 06:09:64 | 183420 | 211158
11 | 46:55:34 | 07:11:43 | 211159 | 243526
12 | 54:07:02 | 04:33:28 | 243527 | 264029
AccurateRip Summary (DiscID: 0018b31f-00ea0616-b50dc00c)
Track 01 : OK (v1+v2, confidence 5/5)
Track 02 : OK (v1+v2, confidence 5/5)
Track 03 : OK (v1+v2, confidence 5/5)
Track 04 : OK (v1+v2, confidence 5/5)
Track 05 : OK (v1+v2, confidence 5/5)
Track 06 : OK (v1+v2, confidence 5/5)
Track 07 : OK (v1+v2, confidence 5/5)
Track 08 : OK (v1+v2, confidence 5/5)
Track 09 : OK (v1+v2, confidence 5/5)
Track 10 : OK (v1+v2, confidence 5/5)
Track 11 : OK (v1+v2, confidence 5/5)
Track 12 : OK (v1+v2, confidence 5/5)
->All tracks accurately ripped.
All Tracks
Album gain : -2.18 dB
Peak : 1.000000
Statistics
Read error : 0
Jitter error (maybe fixed) : 0
Retry sector count : 0
Damaged sector count : 0
Track 01
Filename : /Volumes/SuperBig/XLD Rips/Cuba L.A. - Dos [2000] FLAC/01 Kila Quique y Chocolate.flac
Pre-gap length : 00:02:00
Track gain : -2.10 dB
Peak : 1.000000
CRC32 hash (test run) : 4D754E9F
CRC32 hash : 4D754E9F
CRC32 hash (skip zero) : 388800E4
AccurateRip v1 signature : 1D5E315C
AccurateRip v2 signature : 1A901AE0
->Accurately ripped (v1+v2, confidence 2+3/5)
Statistics
Read error : 0
Jitter error (maybe fixed) : 0
Retry sector count : 0
Damaged sector count : 0
Track 02
Filename : /Volumes/SuperBig/XLD Rips/Cuba L.A. - Dos [2000] FLAC/02 La Mora.flac
Pre-gap length : 00:03:15
Track gain : -0.63 dB
Peak : 0.999969
CRC32 hash (test run) : 296440E5
CRC32 hash : 296440E5
CRC32 hash (skip zero) : 052017B7
AccurateRip v1 signature : CE4FE8EB
AccurateRip v2 signature : 324DB17E
->Accurately ripped (v1+v2, confidence 2+3/5)
Statistics
Read error : 0
Jitter error (maybe fixed) : 0
Retry sector count : 0
Damaged sector count : 0
Track 03
Filename : /Volumes/SuperBig/XLD Rips/Cuba L.A. - Dos [2000] FLAC/03 Lagrimas Negras.flac
Pre-gap length : 00:02:43
Track gain : -2.55 dB
Peak : 1.000000
CRC32 hash (test run) : 8AB35A31
CRC32 hash : 8AB35A31
CRC32 hash (skip zero) : A93935C1
AccurateRip v1 signature : 55CC2CB9
AccurateRip v2 signature : 5B749EC1
->Accurately ripped (v1+v2, confidence 2+3/5)
Statistics
Read error : 0
Jitter error (maybe fixed) : 0
Retry sector count : 0
Damaged sector count : 0
Track 04
Filename : /Volumes/SuperBig/XLD Rips/Cuba L.A. - Dos [2000] FLAC/04 El Guararei de Pastora.flac
Pre-gap length : 00:02:43
Track gain : -2.46 dB
Peak : 1.000000
CRC32 hash (test run) : 7093657B
CRC32 hash : 7093657B
CRC32 hash (skip zero) : 136B088B
AccurateRip v1 signature : E927A336
AccurateRip v2 signature : 20F0B9E3
->Accurately ripped (v1+v2, confidence 2+3/5)
Statistics
Read error : 0
Jitter error (maybe fixed) : 0
Retry sector count : 0
Damaged sector count : 0
Track 05
Filename : /Volumes/SuperBig/XLD Rips/Cuba L.A. - Dos [2000] FLAC/05 Whisper Not.flac
Pre-gap length : 00:02:43
Track gain : -2.31 dB
Peak : 1.000000
CRC32 hash (test run) : 0AB4B66A
CRC32 hash : 0AB4B66A
CRC32 hash (skip zero) : 623A0364
AccurateRip v1 signature : 79C2A1F7
AccurateRip v2 signature : C0417AD3
->Accurately ripped (v1+v2, confidence 2+3/5)
Statistics
Read error : 0
Jitter error (maybe fixed) : 0
Retry sector count : 0
Damaged sector count : 0
Track 06
Filename : /Volumes/SuperBig/XLD Rips/Cuba L.A. - Dos [2000] FLAC/06 Popurri de Congas.flac
Pre-gap length : 00:02:42
Track gain : -0.95 dB
Peak : 1.000000
CRC32 hash (test run) : 5601AEE9
CRC32 hash : 5601AEE9
CRC32 hash (skip zero) : 9EDD7E1C
AccurateRip v1 signature : CA3F41CD
AccurateRip v2 signature : F1730467
->Accurately ripped (v1+v2, confidence 2+3/5)
Statistics
Read error : 0
Jitter error (maybe fixed) : 0
Retry sector count : 0
Damaged sector count : 0
Track 07
Filename : /Volumes/SuperBig/XLD Rips/Cuba L.A. - Dos [2000] FLAC/07 DanzГіn Legrand.flac
Pre-gap length : 00:02:43
Track gain : -1.10 dB
Peak : 0.999969
CRC32 hash (test run) : 414D8FE3
CRC32 hash : 414D8FE3
CRC32 hash (skip zero) : 62536CDE
AccurateRip v1 signature : 3BF8F489
AccurateRip v2 signature : 728D68EE
->Accurately ripped (v1+v2, confidence 2+3/5)
Statistics
Read error : 0
Jitter error (maybe fixed) : 0
Retry sector count : 0
Damaged sector count : 0
Track 08
Filename : /Volumes/SuperBig/XLD Rips/Cuba L.A. - Dos [2000] FLAC/08 La Mujer de Antonio.flac
Pre-gap length : 00:02:42
Track gain : -1.10 dB
Peak : 0.999969
CRC32 hash (test run) : 8527C72E
CRC32 hash : 8527C72E
CRC32 hash (skip zero) : 45E1D3F2
AccurateRip v1 signature : 077F0EF5
AccurateRip v2 signature : 7B81A478
->Accurately ripped (v1+v2, confidence 2+3/5)
Statistics
Read error : 0
Jitter error (maybe fixed) : 0
Retry sector count : 0
Damaged sector count : 0
Track 09
Filename : /Volumes/SuperBig/XLD Rips/Cuba L.A. - Dos [2000] FLAC/09 Drume Negrita.flac
Pre-gap length : 00:02:42
Track gain : 0.39 dB
Peak : 1.000000
CRC32 hash (test run) : 5FB69B17
CRC32 hash : 5FB69B17
CRC32 hash (skip zero) : BAE51209
AccurateRip v1 signature : CCB410A3
AccurateRip v2 signature : A9FF1E0F
->Accurately ripped (v1+v2, confidence 2+3/5)
Statistics
Read error : 0
Jitter error (maybe fixed) : 0
Retry sector count : 0
Damaged sector count : 0
Track 10
Filename : /Volumes/SuperBig/XLD Rips/Cuba L.A. - Dos [2000] FLAC/10 Guantanamera.flac
Pre-gap length : 00:02:43
Track gain : -2.95 dB
Peak : 1.000000
CRC32 hash (test run) : 261E134E
CRC32 hash : 261E134E
CRC32 hash (skip zero) : F423540C
AccurateRip v1 signature : F8038B81
AccurateRip v2 signature : 3363F5FD
->Accurately ripped (v1+v2, confidence 2+3/5)
Statistics
Read error : 0
Jitter error (maybe fixed) : 0
Retry sector count : 0
Damaged sector count : 0
Track 11
Filename : /Volumes/SuperBig/XLD Rips/Cuba L.A. - Dos [2000] FLAC/11 Delirio.flac
Pre-gap length : 00:02:42
Track gain : -3.53 dB
Peak : 1.000000
CRC32 hash (test run) : 174E9262
CRC32 hash : 174E9262
CRC32 hash (skip zero) : 25ABF89B
AccurateRip v1 signature : A8E40E6F
AccurateRip v2 signature : B236092D
->Accurately ripped (v1+v2, confidence 2+3/5)
Statistics
Read error : 0
Jitter error (maybe fixed) : 0
Retry sector count : 0
Damaged sector count : 0
Track 12
Filename : /Volumes/SuperBig/XLD Rips/Cuba L.A. - Dos [2000] FLAC/12 Semillas.flac
Pre-gap length : 00:02:43
Track gain : -2.64 dB
Peak : 1.000000
CRC32 hash (test run) : 8CEE4F0A
CRC32 hash : 8CEE4F0A
CRC32 hash (skip zero) : 00FA6EC9
AccurateRip v1 signature : C78D8FCE
AccurateRip v2 signature : 5108A0E3
->Accurately ripped (v1+v2, confidence 2+3/5)
Statistics
Read error : 0
Jitter error (maybe fixed) : 0
Retry sector count : 0
Damaged sector count : 0
No errors occurred
End of status report
-----BEGIN XLD SIGNATURE-----
mw1YSXVnr_D0NSpblVWJ.JHINyHadmk.wjSpPZomyoVOS35w4GaEsHO4eCsF.NrkD.Pdl0KrwHRnHb9ssMnOPvZ4RqbfX848sAOws0K
-----END XLD SIGNATURE-----
 
Содержание индексной карты (.CUE)
TITLE "Dos"
PERFORMER "Cuba L.A."
CATALOG 0724384965921
REM GENRE "Latin"
REM DATE "2000"
REM DISCID B50DC00C
REM REPLAYGAIN_ALBUM_GAIN -2.18 dB
REM REPLAYGAIN_ALBUM_PEAK 1.000000
FILE "01 - Kila Quique y Chocolate.flac" WAVE
TRACK 01 AUDIO
TITLE "Kila Quique y Chocolate"
ISRC USNA10017202
REM REPLAYGAIN_TRACK_GAIN -2.10 dB
REM REPLAYGAIN_TRACK_PEAK 1.000000
INDEX 01 00:00:00
TRACK 02 AUDIO
TITLE "La Mora"
ISRC USNA10017203
REM REPLAYGAIN_TRACK_GAIN -0.63 dB
REM REPLAYGAIN_TRACK_PEAK 0.999969
INDEX 00 04:29:25
FILE "02 - La Mora.flac" WAVE
INDEX 01 00:00:00
TRACK 03 AUDIO
TITLE "Lagrimas Negras"
ISRC USNA10017204
REM REPLAYGAIN_TRACK_GAIN -2.55 dB
REM REPLAYGAIN_TRACK_PEAK 1.000000
INDEX 00 03:43:12
FILE "03 - Lagrimas Negras.flac" WAVE
INDEX 01 00:00:00
TRACK 04 AUDIO
TITLE "El Guararei de Pastora"
ISRC USNA10017205
REM REPLAYGAIN_TRACK_GAIN -2.46 dB
REM REPLAYGAIN_TRACK_PEAK 1.000000
INDEX 00 04:21:12
FILE "04 - El Guararei de Pastora.flac" WAVE
INDEX 01 00:00:00
TRACK 05 AUDIO
TITLE "Whisper Not"
ISRC USNA10017206
REM REPLAYGAIN_TRACK_GAIN -2.31 dB
REM REPLAYGAIN_TRACK_PEAK 1.000000
INDEX 00 03:49:52
FILE "05 - Whisper Not.flac" WAVE
INDEX 01 00:00:00
TRACK 06 AUDIO
TITLE "Popurri de Congas"
ISRC USNA10017207
REM REPLAYGAIN_TRACK_GAIN -0.95 dB
REM REPLAYGAIN_TRACK_PEAK 1.000000
INDEX 00 04:40:67
FILE "06 - Popurri de Congas.flac" WAVE
INDEX 01 00:00:00
TRACK 07 AUDIO
TITLE "Danzon Legrand"
ISRC USNA10017208
REM REPLAYGAIN_TRACK_GAIN -1.10 dB
REM REPLAYGAIN_TRACK_PEAK 0.999969
INDEX 00 05:16:43
FILE "07 - Danzon Legrand.flac" WAVE
INDEX 01 00:00:00
TRACK 08 AUDIO
TITLE "La Mujer de Antonio"
ISRC USNA10017209
REM REPLAYGAIN_TRACK_GAIN -1.10 dB
REM REPLAYGAIN_TRACK_PEAK 0.999969
INDEX 00 05:41:50
FILE "08 - La Mujer de Antonio.flac" WAVE
INDEX 01 00:00:00
TRACK 09 AUDIO
TITLE "Drume Negrita"
ISRC USNA10017210
REM REPLAYGAIN_TRACK_GAIN 0.39 dB
REM REPLAYGAIN_TRACK_PEAK 1.000000
INDEX 00 04:28:03
FILE "09 - Drume Negrita.flac" WAVE
INDEX 01 00:00:00
TRACK 10 AUDIO
TITLE "Guantanamera"
ISRC USNA10017211
REM REPLAYGAIN_TRACK_GAIN -2.95 dB
REM REPLAYGAIN_TRACK_PEAK 1.000000
INDEX 00 03:51:25
FILE "10 - Guantanamera.flac" WAVE
INDEX 01 00:00:00
TRACK 11 AUDIO
TITLE "Delirio"
ISRC USNA10017212
REM REPLAYGAIN_TRACK_GAIN -3.53 dB
REM REPLAYGAIN_TRACK_PEAK 1.000000
INDEX 00 06:07:22
FILE "11 - Delirio.flac" WAVE
INDEX 01 00:00:00
TRACK 12 AUDIO
TITLE "Semillas"
ISRC USNA10017213
REM REPLAYGAIN_TRACK_GAIN -2.64 dB
REM REPLAYGAIN_TRACK_PEAK 1.000000
INDEX 00 07:09:00
FILE "12 - Semillas.flac" WAVE
INDEX 01 00:00:00
 
Отчет CUETools
[CUETools log; Date: 13.06.2017 0:11:45; Version: 2.1.5]
[CTDB TOCID: cvxMKjk.yD6VLDvd5y63SDbtaZU-] found.
Track | CTDB Status
1 | (6/6) Accurately ripped
2 | (6/6) Accurately ripped
3 | (6/6) Accurately ripped
4 | (6/6) Accurately ripped
5 | (6/6) Accurately ripped
6 | (6/6) Accurately ripped
7 | (5/6) Accurately ripped, or (1/6) differs in 1 samples @01:16:55
8 | (6/6) Accurately ripped
9 | (6/6) Accurately ripped
10 | (6/6) Accurately ripped
11 | (6/6) Accurately ripped
12 | (5/6) Accurately ripped
[AccurateRip ID: 0018b31f-00ea0616-b50dc00c] found.
Track [ CRC | V2 ] Status
01 [1d5e315c|1a901ae0] (2+4/6) Accurately ripped
02 [ce4fe8eb|324db17e] (2+4/6) Accurately ripped
03 [55cc2cb9|5b749ec1] (2+4/6) Accurately ripped
04 [e927a336|20f0b9e3] (2+4/6) Accurately ripped
05 [79c2a1f7|c0417ad3] (2+4/6) Accurately ripped
06 [ca3f41cd|f1730467] (2+4/6) Accurately ripped
07 [3bf8f489|728d68ee] (2+4/6) Accurately ripped
08 [077f0ef5|7b81a478] (2+4/6) Accurately ripped
09 [ccb410a3|a9ff1e0f] (2+4/6) Accurately ripped
10 [f8038b81|3363f5fd] (2+4/6) Accurately ripped
11 [a8e40e6f|b236092d] (2+4/6) Accurately ripped
12 [c78d8fce|5108a0e3] (2+4/6) Accurately ripped
Track Peak [ CRC32 ] [W/O NULL]
-- 100,0 [6F4595E1] [045F2B76]
01 100,0 [4D754E9F] [388800E4]
02 100,0 [296440E5] [052017B7]
03 100,0 [8AB35A31] [A93935C1]
04 100,0 [7093657B] [136B088B]
05 100,0 [0AB4B66A] [623A0364]
06 100,0 [5601AEE9] [9EDD7E1C]
07 100,0 [414D8FE3] [62536CDE]
08 100,0 [8527C72E] [45E1D3F2]
09 100,0 [5FB69B17] [BAE51209]
10 100,0 [261E134E] [F423540C]
11 100,0 [174E9262] [25ABF89B]
12 100,0 [8CEE4F0A] [00FA6EC9]
01:16
277
Нет комментариев. Ваш будет первым!