Поиск

(Latin Jazz, Contemporary Jazz, Post-Bop) [CD] Dafnis Prieto - About the Monks (Yosvany Terry, Brian Lynch, Luis Perdomo) - 2005, FLAC (tracks+.cue), lossless

(Latin Jazz, Contemporary Jazz, Post-Bop) [CD] Dafnis Prieto - About the Monks (Yosvany Terry, Brian Lynch, Luis Perdomo) - 2005, FLAC (tracks+.cue), lossless
Треклист:
Dafnis Prieto / About the Monks
Жанр: Latin Jazz, Contemporary Jazz, Post-Bop
Носитель: CD
Год издания: 2005
Издатель (лейбл): Zoho
Аудиокодек: FLAC (*.flac)
Тип рипа: tracks+.cue
Битрейт аудио: lossless
Продолжительность: 00:52:19
Источник (релизер): Remyrem13
Наличие сканов в содержимом раздачи: нет
Треклист:
1. About the Monks - 5:23 (Dafnis Prieto)
2.Tumba Francesca – 7:35 (Dafnis Prieto)
3.Ironico Arlequin – 3:44 (Dafnis Prieto)
4.Danzon Santa Clara – 8:04 (Dafnis Prieto)
5.On and On – 8:12 (Dafnis Prieto)
6.Trio Absolute – 2:50 (Dafnis Prieto)
7.Mechanical Movement – 6:17 (Dafnis Prieto)
8.Interrupted Question – 6:37 (Dafnis Prieto)
9.Conga en Ti – 3:33 (Dafnis Prieto)
 
Лог создания рипа
X Lossless Decoder version 20130720 (144.0)
XLD extraction logfile from 2013-09-17 00:07:24 -0500
Dafnis Prieto / About The Monks
Used drive : OPTIARC DVD RW AD-5680H (revision 3AHB)
Media type : Pressed CD
Ripper mode : XLD Secure Ripper
Disable audio cache : OK for the drive with a cache less than 1375KiB
Make use of C2 pointers : NO
Read offset correction : 48
Max retry count : 20
Gap status : Analyzed, Appended
TOC of the extracted CD
Track | Start | Length | Start sector | End sector
---------------------------------------------------------
1 | 00:00:00 | 05:23:10 | 0 | 24234
2 | 05:23:10 | 07:35:70 | 24235 | 58429
3 | 12:59:05 | 03:44:02 | 58430 | 75231
4 | 16:43:07 | 08:04:68 | 75232 | 111599
5 | 24:48:00 | 08:12:32 | 111600 | 148531
6 | 33:00:32 | 02:50:63 | 148532 | 161344
7 | 35:51:20 | 06:17:42 | 161345 | 189661
8 | 42:08:62 | 06:37:30 | 189662 | 219466
9 | 48:46:17 | 03:33:13 | 219467 | 235454
AccurateRip Summary (DiscID: 0012ad16-00889249-6e0c4309)
Track 01 : OK (v1+v2, confidence 6/6)
Track 02 : OK (v1+v2, confidence 6/6)
Track 03 : OK (v1+v2, confidence 6/6)
Track 04 : OK (v1+v2, confidence 6/6)
Track 05 : OK (v1+v2, confidence 6/6)
Track 06 : OK (v1+v2, confidence 6/6)
Track 07 : OK (v1+v2, confidence 6/6)
Track 08 : OK (v1+v2, confidence 6/6)
Track 09 : OK (v1+v2, confidence 6/6)
->All tracks accurately ripped.
All Tracks
Album gain : -6.36 dB
Peak : 0.988647
Statistics
Read error : 0
Jitter error (maybe fixed) : 0
Retry sector count : 0
Damaged sector count : 0
Track 01
Filename : /Users/rem/Music/XLD Rips/Dafnis Prieto - About the Monks [CD][FLAC]/01 Dafnis Prieto - About The Monks.flac
Pre-gap length : 00:02:00
Track gain : -7.26 dB
Peak : 0.988617
CRC32 hash (test run) : F744209A
CRC32 hash : F744209A
CRC32 hash (skip zero) : E7EAAF4B
AccurateRip v1 signature : E81C8AF7
AccurateRip v2 signature : 659632A3
->Accurately ripped (v1+v2, confidence 2+4/6)
Statistics
Read error : 0
Jitter error (maybe fixed) : 0
Retry sector count : 0
Damaged sector count : 0
Track 02
Filename : /Users/rem/Music/XLD Rips/Dafnis Prieto - About the Monks [CD][FLAC]/02 Dafnis Prieto - Tumba Francesca.flac
Track gain : -5.42 dB
Peak : 0.988647
CRC32 hash (test run) : A24C744C
CRC32 hash : A24C744C
CRC32 hash (skip zero) : 7262D5FC
AccurateRip v1 signature : 55C22A8F
AccurateRip v2 signature : 3CF2351E
->Accurately ripped (v1+v2, confidence 2+4/6)
Statistics
Read error : 0
Jitter error (maybe fixed) : 0
Retry sector count : 0
Damaged sector count : 0
Track 03
Filename : /Users/rem/Music/XLD Rips/Dafnis Prieto - About the Monks [CD][FLAC]/03 Dafnis Prieto - Ironico Arlequin.flac
Pre-gap length : 00:03:08
Track gain : -5.05 dB
Peak : 0.988617
CRC32 hash (test run) : 3A0E6E8B
CRC32 hash : 3A0E6E8B
CRC32 hash (skip zero) : BC0BB8E5
AccurateRip v1 signature : F0702EBE
AccurateRip v2 signature : 1740C7B6
->Accurately ripped (v1+v2, confidence 2+4/6)
Statistics
Read error : 0
Jitter error (maybe fixed) : 0
Retry sector count : 0
Damaged sector count : 0
Track 04
Filename : /Users/rem/Music/XLD Rips/Dafnis Prieto - About the Monks [CD][FLAC]/04 Dafnis Prieto - Danzon Santa Clara.flac
Track gain : -7.21 dB
Peak : 0.988647
CRC32 hash (test run) : EFBEAD1D
CRC32 hash : EFBEAD1D
CRC32 hash (skip zero) : CC39E50A
AccurateRip v1 signature : 5DE8AB80
AccurateRip v2 signature : 3D6ED642
->Accurately ripped (v1+v2, confidence 2+4/6)
Statistics
Read error : 0
Jitter error (maybe fixed) : 0
Retry sector count : 0
Damaged sector count : 0
Track 05
Filename : /Users/rem/Music/XLD Rips/Dafnis Prieto - About the Monks [CD][FLAC]/05 Dafnis Prieto - On And On.flac
Pre-gap length : 00:03:45
Track gain : -5.19 dB
Peak : 0.988647
CRC32 hash (test run) : 3AEE192A
CRC32 hash : 3AEE192A
CRC32 hash (skip zero) : 834AE761
AccurateRip v1 signature : 3B7E3192
AccurateRip v2 signature : 1DBC0190
->Accurately ripped (v1+v2, confidence 2+4/6)
Statistics
Read error : 0
Jitter error (maybe fixed) : 0
Retry sector count : 0
Damaged sector count : 0
Track 06
Filename : /Users/rem/Music/XLD Rips/Dafnis Prieto - About the Monks [CD][FLAC]/06 Dafnis Prieto - Trio Absolute.flac
Pre-gap length : 00:01:15
Track gain : -5.18 dB
Peak : 0.988617
CRC32 hash (test run) : BF12AB1E
CRC32 hash : BF12AB1E
CRC32 hash (skip zero) : B66A7D42
AccurateRip v1 signature : E14643F1
AccurateRip v2 signature : 965605E4
->Accurately ripped (v1+v2, confidence 2+4/6)
Statistics
Read error : 0
Jitter error (maybe fixed) : 0
Retry sector count : 0
Damaged sector count : 0
Track 07
Filename : /Users/rem/Music/XLD Rips/Dafnis Prieto - About the Monks [CD][FLAC]/07 Dafnis Prieto - Mechanical Movement.flac
Pre-gap length : 00:02:33
Track gain : -6.01 dB
Peak : 0.988647
CRC32 hash (test run) : F3316B8B
CRC32 hash : F3316B8B
CRC32 hash (skip zero) : 67E5A302
AccurateRip v1 signature : 1EA99CE3
AccurateRip v2 signature : 3C0AA5F7
->Accurately ripped (v1+v2, confidence 2+4/6)
Statistics
Read error : 0
Jitter error (maybe fixed) : 0
Retry sector count : 0
Damaged sector count : 0
Track 08
Filename : /Users/rem/Music/XLD Rips/Dafnis Prieto - About the Monks [CD][FLAC]/08 Dafnis Prieto - Interrupted Question.flac
Pre-gap length : 00:02:72
Track gain : -7.22 dB
Peak : 0.988647
CRC32 hash (test run) : 9C0F1BB0
CRC32 hash : 9C0F1BB0
CRC32 hash (skip zero) : B66B55B5
AccurateRip v1 signature : 1B83DC98
AccurateRip v2 signature : C7C729A0
->Accurately ripped (v1+v2, confidence 2+4/6)
Statistics
Read error : 0
Jitter error (maybe fixed) : 0
Retry sector count : 0
Damaged sector count : 0
Track 09
Filename : /Users/rem/Music/XLD Rips/Dafnis Prieto - About the Monks [CD][FLAC]/09 Dafnis Prieto - Conga En Ti.flac
Track gain : -4.84 dB
Peak : 0.988647
CRC32 hash (test run) : 0CDB918B
CRC32 hash : 0CDB918B
CRC32 hash (skip zero) : F1E5BE8E
AccurateRip v1 signature : 4928F64B
AccurateRip v2 signature : FEE86BE1
->Accurately ripped (v1+v2, confidence 2+4/6)
Statistics
Read error : 0
Jitter error (maybe fixed) : 0
Retry sector count : 0
Damaged sector count : 0
No errors occurred
End of status report
 
Содержание индексной карты (.CUE)
TITLE "About The Monks"
PERFORMER "Dafnis Prieto"
REM GENRE "Jazz"
REM DATE "2005"
REM DISCNUMBER 1
REM TOTALDISCS 1
REM DISCID 6E0C4309
REM REPLAYGAIN_ALBUM_GAIN -6.36 dB
REM REPLAYGAIN_ALBUM_PEAK 0.988647
FILE "01 Dafnis Prieto - About The Monks.flac" WAVE
TRACK 01 AUDIO
TITLE "About The Monks"
SONGWRITER "Dafnis Prieto"
REM REPLAYGAIN_TRACK_GAIN -7.26 dB
REM REPLAYGAIN_TRACK_PEAK 0.988617
INDEX 01 00:00:00
FILE "02 Dafnis Prieto - Tumba Francesca.flac" WAVE
TRACK 02 AUDIO
TITLE "Tumba Francesca"
SONGWRITER "Dafnis Prieto"
REM REPLAYGAIN_TRACK_GAIN -5.42 dB
REM REPLAYGAIN_TRACK_PEAK 0.988647
INDEX 01 00:00:00
TRACK 03 AUDIO
TITLE "Ironico Arlequin"
SONGWRITER "Dafnis Prieto"
REM REPLAYGAIN_TRACK_GAIN -5.05 dB
REM REPLAYGAIN_TRACK_PEAK 0.988617
INDEX 00 07:32:62
FILE "03 Dafnis Prieto - Ironico Arlequin.flac" WAVE
INDEX 01 00:00:00
FILE "04 Dafnis Prieto - Danzon Santa Clara.flac" WAVE
TRACK 04 AUDIO
TITLE "Danzon Santa Clara"
SONGWRITER "Dafnis Prieto"
REM REPLAYGAIN_TRACK_GAIN -7.21 dB
REM REPLAYGAIN_TRACK_PEAK 0.988647
INDEX 01 00:00:00
TRACK 05 AUDIO
TITLE "On And On"
SONGWRITER "Dafnis Prieto"
REM REPLAYGAIN_TRACK_GAIN -5.19 dB
REM REPLAYGAIN_TRACK_PEAK 0.988647
INDEX 00 08:01:23
FILE "05 Dafnis Prieto - On And On.flac" WAVE
INDEX 01 00:00:00
TRACK 06 AUDIO
TITLE "Trio Absolute"
SONGWRITER "Dafnis Prieto"
REM REPLAYGAIN_TRACK_GAIN -5.18 dB
REM REPLAYGAIN_TRACK_PEAK 0.988617
INDEX 00 08:11:17
FILE "06 Dafnis Prieto - Trio Absolute.flac" WAVE
INDEX 01 00:00:00
TRACK 07 AUDIO
TITLE "Mechanical Movement"
SONGWRITER "Dafnis Prieto"
REM REPLAYGAIN_TRACK_GAIN -6.01 dB
REM REPLAYGAIN_TRACK_PEAK 0.988647
INDEX 00 02:48:30
FILE "07 Dafnis Prieto - Mechanical Movement.flac" WAVE
INDEX 01 00:00:00
TRACK 08 AUDIO
TITLE "Interrupted Question"
SONGWRITER "Dafnis Prieto"
REM REPLAYGAIN_TRACK_GAIN -7.22 dB
REM REPLAYGAIN_TRACK_PEAK 0.988647
INDEX 00 06:14:45
FILE "08 Dafnis Prieto - Interrupted Question.flac" WAVE
INDEX 01 00:00:00
FILE "09 Dafnis Prieto - Conga En Ti.flac" WAVE
TRACK 09 AUDIO
TITLE "Conga En Ti"
SONGWRITER "Dafnis Prieto"
REM REPLAYGAIN_TRACK_GAIN -4.84 dB
REM REPLAYGAIN_TRACK_PEAK 0.988647
INDEX 01 00:00:00
 
Об альбоме (сборнике)
Review by Scott Yanow
Drummer Dafnis Prieto's recording debut as a leader consists of nine of his originals. His songs are usually rhythmically complex but also contain strong melodies and challenging chord changes. Prieto takes some short solos (and is showcased on the closing "Conga en Ti"), but mostly plays behind his notable sidemen. Trumpeter Brian Lynch is on four selections, saxophonist Yosvany Terry is on six (displaying individual voices on alto, tenor, soprano, and chekere), and bassist Hans Glawischnig is quite skillful in the ensembles, but pianist Luis Perdomo often takes solo honors. Each of the musicians plays quite well and sounds inspired by the material. Violinist Ilmar Gavilan makes a guest appearance on "Mechanical Movement," fitting in comfortably on the adventurous original. Overall, this set features modern Afro-Cuban jazz with post-bop solos and plenty of unpredictability. Recommended.
 
Состав
•Dafnis Prieto – Drums, Percussion, Composer, Arranger
•Yosvany Terry – Sax, Chekere
•Brian Lynch – Trumpet
•Luis Perdomo – Piano
•Hans Glawischnig – Bass
•Ilmar Gavilan – Violin
18:20
359
Нет комментариев. Ваш будет первым!