Поиск

(Latin Jazz, Contemporary Jazz) [CD] The O'Farrill Brothers Band - Sensing Flight - 2013, FLAC (image+.cue), lossless

Треклист:
The O'Farrill Brothers Band - Sensing Flight
Жанр: Latin Jazz, Contemporary Jazz
Носитель: CD
Страна-производитель диска: США
Год издания: 2013
Издатель (лейбл): Zoho
Номер по каталогу: ZM 201301
Аудиокодек: FLAC (*.flac)
Тип рипа: image+.cue
Битрейт аудио: lossless
Продолжительность: 61:18
Источник (релизер): dreadbull (hqshare)
Наличие сканов в содержимом раздачи: да
Треклист:
01. Drive /Adam O'Farrill/ 6:18
02. Wrong Key Donkey /Carla Bley/ 4:06
03. Monet /Adam O'Farrill/ 6:21
04. Action and Reaction /Livio Almeida/ 7:58
05. Mind Troubles /Adam O'Farrill/ 6:05
06. Broken Wings /Adam O'Farrill/ 9:23
07. Full Measure /Adam O'Farrill/ 7:39
08. Upper Manhattan Medical Group /Strayhorn/ 6:55
09. Sensations /Adam O'Farrill/ 6:32
 
Лог создания рипа
Exact Audio Copy V1.0 beta 3 from 29. August 2011
EAC extraction logfile from 26. March 2014, 23:14
The O'Farrill Brothers Band / Sensing Flight
Used drive : ASUS DRW-22B2L Adapter: 0 ID: 0
Read mode : Secure
Utilize accurate stream : Yes
Defeat audio cache : Yes
Make use of C2 pointers : No
Read offset correction : 6
Overread into Lead-In and Lead-Out : No
Fill up missing offset samples with silence : Yes
Delete leading and trailing silent blocks : No
Null samples used in CRC calculations : Yes
Used interface : Native Win32 interface for Win NT & 2000
Used output format : User Defined Encoder
Selected bitrate : 128 kBit/s
Quality : High
Add ID3 tag : Yes
Command line compressor : C:\Program Files (x86)\FLAC\flac.exe
Additional command line options : -8 -V -T "ARTIST=%artist%" -T "TITLE=%title%" -T "ALBUM=%albumtitle%" -T "DATE=%year%" -T "TRACKNUMBER=%tracknr%" -T "GENRE=%genre%" -T "PERFORMER=%albuminterpret%" -T "COMPOSER=%composer%" %haslyrics%--tag-from-file=LYRICS="%lyricsfile%"%haslyrics% -T "ALBUMARTIST=%albumartist%" -T "DISCNUMBER=%cdnumber%" -T "TOTALDISCS=%totalcds%" -T "TOTALTRACKS=%numtracks%" -T "COMMENT=%comment%" %source% -o %dest%
TOC of the extracted CD
Track | Start | Length | Start sector | End sector
---------------------------------------------------------
1 | 0:00.00 | 6:18.27 | 0 | 28376
2 | 6:18.27 | 4:06.02 | 28377 | 46828
3 | 10:24.29 | 6:21.01 | 46829 | 75404
4 | 16:45.30 | 7:58.21 | 75405 | 111275
5 | 24:43.51 | 6:04.53 | 111276 | 138628
6 | 30:48.29 | 9:23.22 | 138629 | 180875
7 | 40:11.51 | 7:38.32 | 180876 | 215257
8 | 47:50.08 | 6:55.17 | 215258 | 246399
9 | 54:45.25 | 6:32.23 | 246400 | 275822
Range status and errors
Selected range
Filename H:\Donkey Files\The O'Farrill Brothers Band - Sensing Flight (2013, Zoho) [eac-flac-scans] byDrBull\The OFarrill Brothers Band - Sensing Flight.wav
Peak level 97.7 %
Extraction speed 4.0 X
Range quality 99.9 %
Test CRC 09468556
Copy CRC 09468556
Copy OK
No errors occurred
AccurateRip summary
Track 1 not present in database
Track 2 not present in database
Track 3 not present in database
Track 4 not present in database
Track 5 not present in database
Track 6 not present in database
Track 7 not present in database
Track 8 not present in database
Track 9 not present in database
None of the tracks are present in the AccurateRip database
End of status report
---- CUETools DB Plugin V2.1.4
[CTDB TOCID: NHmsEzO6Sqk6lZUHWysncfMX6jU-] disk not present in database
Submit result: NHmsEzO6Sqk6lZUHWysncfMX6jU- has been uploaded
 
Содержание индексной карты (.CUE)
REM GENRE Jazz
REM DATE 2013
REM DISCID 740E5D09
REM COMMENT "ExactAudioCopy v1.0b3"
PERFORMER "The O'Farrill Brothers Band"
TITLE "Sensing Flight"
FILE "The O'Farrill Brothers Band - Sensing Flight.wav" WAVE
TRACK 01 AUDIO
TITLE "Drive"
PERFORMER "The O'Farrill Brothers Band"
INDEX 01 00:00:00
TRACK 02 AUDIO
TITLE "Wrong Key Donkey"
PERFORMER "The O'Farrill Brothers Band"
INDEX 00 06:16:27
INDEX 01 06:18:27
TRACK 03 AUDIO
TITLE "Monet"
PERFORMER "The O'Farrill Brothers Band"
INDEX 00 10:22:29
INDEX 01 10:24:29
TRACK 04 AUDIO
TITLE "Action and Reaction"
PERFORMER "The O'Farrill Brothers Band"
INDEX 00 16:43:30
INDEX 01 16:45:30
TRACK 05 AUDIO
TITLE "Mind Troubles"
PERFORMER "The O'Farrill Brothers Band"
INDEX 00 24:41:51
INDEX 01 24:43:51
TRACK 06 AUDIO
TITLE "Broken Wings"
PERFORMER "The O'Farrill Brothers Band"
INDEX 00 30:46:29
INDEX 01 30:48:29
TRACK 07 AUDIO
TITLE "Full Measure"
PERFORMER "The O'Farrill Brothers Band"
INDEX 00 40:09:51
INDEX 01 40:11:51
TRACK 08 AUDIO
TITLE "Upper Manhattan Medical Group"
PERFORMER "The O'Farrill Brothers Band"
INDEX 00 47:48:08
INDEX 01 47:50:08
TRACK 09 AUDIO
TITLE "Sensations"
PERFORMER "The O'Farrill Brothers Band"
INDEX 00 54:43:25
INDEX 01 54:45:25
 
Отчет CUETools
[CUETools log; Date: 03.05.2014 1:40:29; Version: 2.1.4]
[CTDB TOCID: NHmsEzO6Sqk6lZUHWysncfMX6jU-] found.
Track | CTDB Status
1 | (1/1) Accurately ripped
2 | (1/1) Accurately ripped
3 | (1/1) Accurately ripped
4 | (1/1) Accurately ripped
5 | (1/1) Accurately ripped
6 | (1/1) Accurately ripped
7 | (1/1) Accurately ripped
8 | (1/1) Accurately ripped
9 | (1/1) Accurately ripped
[AccurateRip ID: 00141fd9-009650a2-740e5d09] found.
Track [ CRC | V2 ] Status
01 [3ceb70b3|24a808f8] (0+1/1) Accurately ripped
02 [1ece3843|40e6b2c0] (0+1/1) Accurately ripped
03 [4a493033|41082129] (0+1/1) Accurately ripped
04 [a753410a|be2a21d8] (0+1/1) Accurately ripped
05 [8b1ffa81|81f981ec] (0+1/1) Accurately ripped
06 [027b108c|bb734398] (0+1/1) Accurately ripped
07 [93428bee|e4d3f3c5] (0+1/1) Accurately ripped
08 [bfaa6372|632b4f4e] (0+1/1) Accurately ripped
09 [ecf66710|0e377d3d] (0+1/1) Accurately ripped
Track Peak [ CRC32 ] [W/O NULL] [ LOG ]
-- 97,7 [09468556] [A222F278] CRC32
01 97,7 [02B08344] [B496C567]
02 97,7 [7307ACFB] [E74393EC]
03 97,7 [76EF7150] [92210220]
04 97,7 [C44270A3] [4ED807AD]
05 97,7 [5A9A738F] [CA627CA0]
06 97,7 [280233B0] [12752350]
07 97,7 [D966F737] [33DB2807]
08 97,7 [235128BB] [9B87B5B0]
09 97,7 [A721F361] [BA4A0D2A]
 
Об альбоме (сборнике)
The prodigious progeny of famed pianist/composer/bandleader Arturo O'Farrill rightfully turned a lot of heads with Giant Peach (Zoho Music, 2011), but that record is easily eclipsed by Sensing Flight. With this sophomore release, drummer Zachary O'Farrill and still-in-his-teens trumpeter Adam O'Farrill have gone a step beyond, reaching a level of artistic confidence that eludes most musicians of any age.
Sensing Flight sets its course around the trumpeter's music, with six of the nine tunes belonging to the younger O'Farrill brother, and his horn is also the most striking thing on the record. His artistry, tonal personality and confidence have taken a quantum leap forward since Giant Peach, as he creates stories with focused dramatic arcs, à la trumpeter Terence Blanchard, and delivers a more muscular and emotionally direct brand of playing that connects him to latter day horn heroes like Ambrose Akinmusire.
As a composer, Adam O'Farrill finds satisfaction by working jazz from all angles. He takes familiar forms, like shuffling, bluesy soul music ("Mind Troubles"), but keeps things interesting by throwing in a few wrenches. He creates hip, off-kilter groove scenarios that underscore communicative interplay ("Drive") and loose flowing, concentrically connected encounters ("Monet"). He even allows pure, unfiltered beauty to rise to the surface when the day is finally done ("Sensations").
While the young trumpeter deserves all the copy he gets for his work on this album, he isn't alone on this journey. The elder O'Farrill sibling proves to be an excellent driver, whether navigating choppy roads ("Wrong Key Donkey") or putting things on cruise control. He makes otherwise-awkward metric constructs seem simple and he pushes and pulls in all the right places, with a little assistance from firm-and-flexible bassist Raviv Markovitz. Pianist Adam Kromelow and guitarist Gabe Schnider both do an excellent job balancing their duties as rhythm section men and front-and-center soloists, but it's saxophonist Livio Almeida who proves to be the most impressive non-O'Farrill on the date. He matches Adam O'Farrill, mood-for-mood and stride-for-stride, and adds some contrast to the program with a seriously grooving, funky compositional contribution ("Action And Reaction"). As individuals, each man stays his own course and does his duty, but as a group they come together as family; sibling simpatico may be on display between the actual O'Farrill Brothers, but musical bonds turn all six players into brothers-in-arms.
Sensing Flight isn't an album from fledgling jazzers waiting to take off; it's a recording from an already airborne crew of mighty musical flyers.
~Dan Bilawsky, AAJ
 
Состав
Adam O'Farrill - trumpet;
Zack O'Farrill - drums;
Livio Almeida - tenor sax;
Adam Kromelow - piano;
Gabe Schnider - guitar;
Raviv Markovitz - bass.
Rec.: Nola Studios, NYC, Jun 27-28, 2012.
15:22
287
Нет комментариев. Ваш будет первым!