Поиск

(Latin Jazz) Chucho Valdes - Live - 1998, FLAC (image+.cue) lossless

Треклист:
Chucho Valdes - Live
Жанр: Latin Jazz
Год издания диска: 1998
Издатель (лейбл): RMM
Номер по каталогу: 82251
Аудио кодек: FLAC (*.flac)
Тип рипа: image+.cue
Битрейт аудио: lossless
Продолжительность: 44:11
Источник (релизер): frafra64 (hqshare)
Наличие сканов в содержимом раздачи: да
Треклист:
01 Tumbao
02 Danzón Para Sylvia
03 Blues a Benny Moré
04 Blues a Puerto Rico
05 Mango Mangue
06 Tunes a Coy
 
Лог создания рипа
Exact Audio Copy V0.99 prebeta 3 from 28. July 2007
EAC extraction logfile from 15. March 2009, 12:31
Chucho Valdйs / Live
Used drive : MATSHITADVD-ROM SR-8588 Adapter: 1 ID: 1
Read mode : Secure
Utilize accurate stream : Yes
Defeat audio cache : Yes
Make use of C2 pointers : No
Read offset correction : 103
Overread into Lead-In and Lead-Out : No
Fill up missing offset samples with silence : Yes
Delete leading and trailing silent blocks : No
Null samples used in CRC calculations : Yes
Used interface : Installed external ASPI interface
Used output format : Internal WAV Routines
Sample format : 44.100 Hz; 16 Bit; Stereo
TOC of the extracted CD
Track | Start | Length | Start sector | End sector
---------------------------------------------------------
1 | 0:00.00 | 6:55.62 | 0 | 31186
2 | 6:55.62 | 7:15.13 | 31187 | 63824
3 | 14:11.00 | 7:32.45 | 63825 | 97769
4 | 21:43.45 | 5:09.45 | 97770 | 120989
5 | 26:53.15 | 9:29.60 | 120990 | 163724
6 | 36:23.00 | 7:48.20 | 163725 | 198844
Range status and errors
Selected range
Filename J:\MMT\Chucho Valdes - Invitacion\Chucho Valdйs - Live.wav
Peak level 100.0 %
Range quality 100.0 %
Copy CRC D8A97DC7
Copy OK
No errors occurred
AccurateRip summary
Track 1 not present in database
Track 2 cannot be verified as accurate (confidence 2) [73215FA1], AccurateRip returned [37BE1CD5]
Track 3 cannot be verified as accurate (confidence 2) [0D086E98], AccurateRip returned [BE3739AA]
Track 4 cannot be verified as accurate (confidence 2) [35853497], AccurateRip returned [F147A5AC]
Track 5 cannot be verified as accurate (confidence 2) [E0715E0C], AccurateRip returned [A3B0F575]
Track 6 cannot be verified as accurate (confidence 2) [B0DB3527], AccurateRip returned [31261636]
5 track(s) could not be verified as accurate
1 track(s) not present in the AccurateRip database
No tracks could be verified as accurate
You may have a different pressing from the one(s) in the database
End of status report
 
Review by Paula Edelstein (allaboutjazz)
Cuban music legend, Jesus “Chucho” Valdes is fiery hot and still impacting the jazz world with his diverse musical elements. Riding the new wave in Latin jazz fostered by the pianist’s critically acclaimed Bele Bele en la Habana on Blue Note in 1998, Valdes reserved enough energy to excite his fans with an exquisite blend of technique and soul on Live. The CD, an infectious, collection of cubop grooves and rhythms, further develops the Afro-Cuban and Latin jazz collective Chucho has been pulsating for the past 25 years as musical director of Irakere, the award-winning band he co-founded to play both music styles. “Tumbao,” and “Blues A Puerto Rico,” feature a variety of moods, melodies, synchopation and the signature solos of Chucho’s formidable piano. Along with the extra fire of his rhythm section, Live broadens Valdes’ Afro-Cuban perspective and the influences brimming in Carribean and Latin American life.
19:42
253
Нет комментариев. Ваш будет первым!