Поиск

(Latin-jazz) Chevere de Chicago - Secret dream - 2005, FLAC (image+.cue), lossless

(Latin-jazz) Chevere de Chicago - Secret dream - 2005, FLAC (image+.cue), lossless
Треклист:
Chevere de Chicago - Secret dream
Жанр: Latin-jazz
Год выпуска диска: 2005
Производитель диска: США
Аудио кодек: FLAC
Тип рипа: image+.cue
Битрейт аудио: lossless
Продолжительность: 67:05
Треклист:
1. Intro 0:11
2. Secret Dream 7:40
3. El Cojo 7:40
4. Maria Cristina 4:35
5. Guajira En Las Pampas 8:24
6. Elugua/Rumba Chevere 3:16
7. Dolphin Dance 9:59
8. The Beauty Around Us 4:07
9. Telegram of Love 6:33
10. Pucho's Pretzels 3:32
11. Elis Regina Medley pt. 1 - Valsa Rancho 5:20
12. pt. 2 - Ou Bola Ou Bulica 5:43
 
Лог ЕАС
Exact Audio Copy V0.99 prebeta 5 from 4. May 2009
EAC extraction logfile from 12. August 2010, 1:49
Cheverй de Chicago / Secret dream
Used drive : Optiarc DVD RW AD-7200S Adapter: 1 ID: 0
Read mode : Secure
Utilize accurate stream : Yes
Defeat audio cache : Yes
Make use of C2 pointers : No
Read offset correction : 48
Overread into Lead-In and Lead-Out : No
Fill up missing offset samples with silence : Yes
Delete leading and trailing silent blocks : No
Null samples used in CRC calculations : Yes
Used interface : Installed external ASPI interface
Used output format : User Defined Encoder
Selected bitrate : 128 kBit/s
Quality : High
Add ID3 tag : No
Command line compressor : E:\audio\foobar2000[torrents.ru]\flac\bin\flac.exe
Additional command line options : -8 -V %s
TOC of the extracted CD
Track | Start | Length | Start sector | End sector
---------------------------------------------------------
1 | 0:00.00 | 0:11.14 | 0 | 838
2 | 0:11.14 | 7:40.30 | 839 | 35368
3 | 7:51.44 | 7:40.34 | 35369 | 69902
4 | 15:32.03 | 4:35.60 | 69903 | 90587
5 | 20:07.63 | 8:24.22 | 90588 | 128409
6 | 28:32.10 | 3:16.70 | 128410 | 143179
7 | 31:49.05 | 9:59.13 | 143180 | 188117
8 | 41:48.18 | 4:07.02 | 188118 | 206644
9 | 45:55.20 | 6:33.13 | 206645 | 236132
10 | 52:28.33 | 3:32.17 | 236133 | 252049
11 | 56:00.50 | 5:20.58 | 252050 | 276107
12 | 61:21.33 | 5:43.24 | 276108 | 301856
Range status and errors
Selected range
Filename E:\Chevere de Chicago - Secret Dream(2005)\Chevere de Chicago - Secret dream.wav
Peak level 99.7 %
Range quality 99.9 %
Test CRC D8059869
Copy CRC D8059869
Copy OK
No errors occurred
AccurateRip summary
Track 1 not present in database
Track 2 not present in database
Track 3 not present in database
Track 4 not present in database
Track 5 not present in database
Track 6 not present in database
Track 7 not present in database
Track 8 not present in database
Track 9 not present in database
Track 10 not present in database
Track 11 not present in database
Track 12 not present in database
None of the tracks are present in the AccurateRip database
End of status report
17:19
327
Нет комментариев. Ваш будет первым!