Поиск

(Latin Jazz) Chembo Corniel & Andrea Brachfeld - Beyond Standards - 2006, FLAC (image+.cue), lossless

(Latin Jazz) Chembo Corniel & Andrea Brachfeld - Beyond Standards - 2006, FLAC (image+.cue), lossless
Chembo Corniel & Andrea Brachfeld - Beyond Standards
Жанр: Latin Jazz
Страна-производитель диска: США
Год издания диска: 2006
Издатель (лейбл): CAP (Consolidated Artists Productions)
Номер по каталогу: CAP000
Аудиокодек: FLAC (*.flac)
Тип рипа: image+.cue
Битрейт аудио: lossless
Продолжительность: 59:23
Источник (релизер): диск из моей коллекции
Наличие сканов в содержимом раздачи: да
Треклист:
01. Flor de Zampona (Brachfeld) - 6:48
02. Transition (Coltrane) - 7:43
03. Naima (Coltrane) - 7:02
04. Conception (Shearing) - 4:50
05. Chelsea Bridge (Strayhorn) - 7:17
06. E. S. P. (Shorter) - 4:49
07. African Flower (Ellington) - 6:37
08. Freedom Jazz Dance (Harris) - 5:30
09. My Little Suede Shoes (Parker) - 4:08
10. Interlude (Brachfeld-Corniel) - 1:32
11. Oddudua (Trad.) - 2:52
Состав:
Andrea Brachfeld - flutes, zampona, piccolo, piano
Wilson "Chembo" Corniel - congas, bata (okoncolo), bongo, percussion
Hilton Ruiz - piano (#2-5,7-9)
Steve Turre - trombone (#2- 5)
Carlo De Rosa - bass
Chris Eddleton - drums
Vince Cherico - drums (#2,4)
Sam Bardfeld - violins (#5)
Pedrito Martinez - vocals (#7,10)
Lisa Maria Salb - vocals (#7,10)
Chris Theberge - bata (itotele) (#7,10)
David Gomez - bata (iya) (#7,10)
Recorded at Kaleidoscope Sounds, Union City, NJ; Nino Studios, Woodhaven, NY; GMENA Studios, Union City, NJ on January 18, 2005.
 
Лог создания рипа
Exact Audio Copy V1.0 beta 1 from 15. November 2010
EAC extraction logfile from 23. December 2011, 3:34
Chembo Corniel & Andrea Brachfeld / Beyond Standards
Used drive : ASUS DRW-24B1LT Adapter: 5 ID: 0
Read mode : Secure
Utilize accurate stream : Yes
Defeat audio cache : Yes
Make use of C2 pointers : No
Read offset correction : 6
Overread into Lead-In and Lead-Out : No
Fill up missing offset samples with silence : Yes
Delete leading and trailing silent blocks : No
Null samples used in CRC calculations : Yes
Used interface : Native Win32 interface for Win NT & 2000
Used output format : User Defined Encoder
Selected bitrate : 768 kBit/s
Quality : High
Add ID3 tag : No
Command line compressor : C:\Program Files\Exact Audio Copy\Flac\flac.exe
Additional command line options : -8 -V -T "ARTIST=%a" -T "TITLE=%t" -T "ALBUM=%g" -T "DATE=%y" -T "TRACKNUMBER=%n" -T "TOTALTRACKS=%x" -T "GENRE=%m" -T "ALBUMARTIST=%v" -T "ALBUM ARTIST=%v" -T "COMMENT=EAC Secure Mode, Test & Copy, AccurateRip, FLAC -8" %s
TOC of the extracted CD
Track | Start | Length | Start sector | End sector
---------------------------------------------------------
1 | 0:00.00 | 6:48.38 | 0 | 30637
2 | 6:48.38 | 7:43.48 | 30638 | 65410
3 | 14:32.11 | 7:04.68 | 65411 | 97278
4 | 21:37.04 | 4:56.25 | 97279 | 119503
5 | 26:33.29 | 7:17.47 | 119504 | 152325
6 | 33:51.01 | 4:50.00 | 152326 | 174075
7 | 38:41.01 | 6:37.53 | 174076 | 203903
8 | 45:18.54 | 5:30.69 | 203904 | 228722
9 | 50:49.48 | 4:08.32 | 228723 | 247354
10 | 54:58.05 | 1:32.50 | 247355 | 254304
11 | 56:30.55 | 2:52.23 | 254305 | 267227
Range status and errors
Selected range
Filename F:\audio\Chembo Corniel & Andrea Brachfeld - Beyond Standards.wav
Peak level 90.5 %
Extraction speed 0.2 X
Range quality 99.9 %
Test CRC 8FDB3021
Copy CRC 8FDB3021
Copy OK
No errors occurred
AccurateRip summary
Track 1 not present in database
Track 2 not present in database
Track 3 not present in database
Track 4 not present in database
Track 5 not present in database
Track 6 not present in database
Track 7 not present in database
Track 8 not present in database
Track 9 not present in database
Track 10 not present in database
Track 11 not present in database
None of the tracks are present in the AccurateRip database
End of status report
==== Log checksum E190C8E5DD44C772B019619F60BDFF1BB63DF457A8018CE2717C06C8FB858F42 ====
 
Содержание индексной карты (.CUE)
REM GENRE "Latin Jazz"
REM DATE 2006
REM DISCID 800DEB0B
REM COMMENT "ExactAudioCopy v1.0b1"
PERFORMER "Chembo Corniel & Andrea Brachfeld"
TITLE "Beyond Standards"
FILE "Chembo Corniel & Andrea Brachfeld - Beyond Standards.wav" WAVE
TRACK 01 AUDIO
TITLE "Flor de Zampona"
PERFORMER "Chembo Corniel & Andrea Brachfeld"
INDEX 01 00:00:00
TRACK 02 AUDIO
TITLE "Transition"
PERFORMER "Chembo Corniel & Andrea Brachfeld"
INDEX 00 06:46:38
INDEX 01 06:48:38
TRACK 03 AUDIO
TITLE "Naima"
PERFORMER "Chembo Corniel & Andrea Brachfeld"
INDEX 00 14:29:11
INDEX 01 14:32:11
TRACK 04 AUDIO
TITLE "Conception"
PERFORMER "Chembo Corniel & Andrea Brachfeld"
INDEX 00 21:33:04
INDEX 01 21:37:04
TRACK 05 AUDIO
TITLE "Chelsea Bridge"
PERFORMER "Chembo Corniel & Andrea Brachfeld"
INDEX 00 26:31:29
INDEX 01 26:33:29
TRACK 06 AUDIO
TITLE "E. S. P."
PERFORMER "Chembo Corniel & Andrea Brachfeld"
INDEX 00 33:49:01
INDEX 01 33:51:01
TRACK 07 AUDIO
TITLE "African Flower"
PERFORMER "Chembo Corniel & Andrea Brachfeld"
INDEX 00 38:39:01
INDEX 01 38:41:01
TRACK 08 AUDIO
TITLE "Freedom Jazz Dance"
PERFORMER "Chembo Corniel & Andrea Brachfeld"
INDEX 00 45:16:54
INDEX 01 45:18:54
TRACK 09 AUDIO
TITLE "My Little Suede Shoes"
PERFORMER "Chembo Corniel & Andrea Brachfeld"
INDEX 00 50:45:48
INDEX 01 50:49:48
TRACK 10 AUDIO
TITLE "Interlude"
PERFORMER "Chembo Corniel & Andrea Brachfeld"
INDEX 00 54:56:05
INDEX 01 54:58:05
TRACK 11 AUDIO
TITLE "Oddudua"
PERFORMER "Chembo Corniel & Andrea Brachfeld"
INDEX 00 56:28:55
INDEX 01 56:30:55
 
Review from allaboutjazz
Brachfeld returned to Latin jazz in a session entitled Beyond Standards, co-led by conguero Wilson "Chembo" Corniel, where they give the Hispanic musical treatment to various jazz standards, accompanied by pianist Hilton Ruiz and trombonist Steve Turre among others of various note. They turned out a decidedly solid recording with many bright areas.
As expected, Ruiz and Turre fulfilled their duties impeccably as soloists and ensemble members in what might have been Ruiz's last recording before dying. They supported the writing with their characteristic encyclopedic panache and meshed superbly with the flutist. Their bolero interpretation of Billy Strayhorn's "Chelsea Bridge" is lusty lushness itself with muted trombone, violins, piano and flute oozing deeply felt emotion.
"E.S.P.," on the other hand, becomes a dashing and jamming conga. "African Flower" is much more Africanized than it could ever hope to be in Duke Ellington's privileged hands. "My Little Suede Shoes" affords the rare opportunity to hear the flutist dealing with a Puerto Rican bomba, and she jazzes her way through rather well.
The co-leader's conga playing is a welcome respite from the dominant trap drum rudiments-influenced, rapid fire diarrhea-of-the-hands style still in vogue among many contemporary conga players, perhaps best exemplified in "Freedom Jazz Dance," "Interlude" and his marcha ethic.
01:30
433
Нет комментариев. Ваш будет первым!