Поиск

(Latin Jazz) [CD] The Sergio Mendes Trio & Wanda De Sah - Brasil '65 (1965) - 2013 {TOCJ-66624}, FLAC (tracks+.cue), lossless

(Latin Jazz) [CD] The Sergio Mendes Trio & Wanda De Sah - Brasil '65 (1965) - 2013 {TOCJ-66624}, FLAC (tracks+.cue), lossless
Треклист:
The Sergio Mendes Trio & Wanda De Sah - Brasil '65 (1965) Жанр: Latin Jazz
Носитель: CD
Страна-производитель диска: Japan
Год издания: 2013
Издатель (лейбл): Capitol/Universal Japan
Номер по каталогу: TOCJ-66624
Аудиокодек: FLAC (*.flac)
Тип рипа: tracks+.cue
Битрейт аудио: lossless
Продолжительность: 31:07
Rip by ruskaval
Наличие сканов в содержимом раздачи: да
Треклист:
01. So Nice (Samba de Verao) (2:15)
02. Favela (2:59)
03. Berimbau (3:22)
04. Tristeza Em Mim (2:03)
05. Aquarius (2:27)
06. One Note Samba (2:24)
07. She's A Carioca (3:28)
08. Muito a Vontade (3:02)
09. Let Me (Deixa) (2:53)
10. Consolacao (3:14)
11. Reza (2:59)
Personnel:
Sergio Mendes - piano
Sebastiao Neto - bass
Chico Batera - drums
Wanda De Sah - vocals
Rosinha De Valenca - guitar
Bud Shank - flute, alto saxophone
 
 
Лог создания рипа
Exact Audio Copy V1.1 from 23. June 2015
EAC extraction logfile from 29. May 2016, 23:13
The Sergio Mendes Trio & Wanda De Sah / Brasil '65
Used drive : HL-DT-STDVDRAM GP50NW41 Adapter: 1 ID: 0
Read mode : Secure
Utilize accurate stream : Yes
Defeat audio cache : Yes
Make use of C2 pointers : No
Read offset correction : 6
Overread into Lead-In and Lead-Out : No
Fill up missing offset samples with silence : Yes
Delete leading and trailing silent blocks : No
Null samples used in CRC calculations : Yes
Used interface : Native Win32 interface for Win NT & 2000
Gap handling : Appended to previous track
Used output format : User Defined Encoder
Selected bitrate : 1024 kBit/s
Quality : High
Add ID3 tag : No
Command line compressor : C:\Program Files (x86)\FLAC Frontend\tools\flac.exe
Additional command line options : -8 -V -T "ARTIST=%artist%" -T "TITLE=%title%" -T "ALBUM=%albumtitle%" -T "DATE=%year%" -T "TRACKNUMBER=%tracknr%" -T "TOTALTRACKS=%numtracks%" -T "GENRE=%genre%" -T "ALBUMARTIST=%albumartist%" -T "ALBUM ARTIST=%albumartist%" -T "COMMENT=EAC Secure Mode, Test & Copy, AccurateRip, FLAC -8" %source%
TOC of the extracted CD
Track | Start | Length | Start sector | End sector
---------------------------------------------------------
1 | 0:00.00 | 2:15.10 | 0 | 10134
2 | 2:15.10 | 2:58.71 | 10135 | 23555
3 | 5:14.06 | 3:22.03 | 23556 | 38708
4 | 8:36.09 | 2:03.08 | 38709 | 47941
5 | 10:39.17 | 2:27.29 | 47942 | 58995
6 | 13:06.46 | 2:24.33 | 58996 | 69828
7 | 15:31.04 | 3:28.27 | 69829 | 85455
8 | 18:59.31 | 3:01.65 | 85456 | 99095
9 | 22:01.21 | 2:53.06 | 99096 | 112076
10 | 24:54.27 | 3:14.18 | 112077 | 126644
11 | 28:08.45 | 2:58.53 | 126645 | 140047
Track 1
Filename D:\_EAC\The Sergio Mendes Trio & Wanda De Sah - Brasil '65 (1965) {FLAC] {TOCJ-66624}\01 - So Nice (Samba de Verao).wav
Pre-gap length 0:00:02.00
Peak level 95.8 %
Extraction speed 0.8 X
Track quality 99.9 %
Test CRC 2F1F1F6C
Copy CRC 2F1F1F6C
Accurately ripped (confidence 6) [438C4259] (AR v2)
Copy OK
Track 2
Filename D:\_EAC\The Sergio Mendes Trio & Wanda De Sah - Brasil '65 (1965) {FLAC] {TOCJ-66624}\02 - Favela.wav
Pre-gap length 0:00:02.28
Peak level 95.7 %
Extraction speed 1.0 X
Track quality 99.9 %
Test CRC 3246EA98
Copy CRC 3246EA98
Accurately ripped (confidence 6) [683B6B7D] (AR v2)
Copy OK
Track 3
Filename D:\_EAC\The Sergio Mendes Trio & Wanda De Sah - Brasil '65 (1965) {FLAC] {TOCJ-66624}\03 - Berimbau.wav
Pre-gap length 0:00:02.28
Peak level 95.8 %
Extraction speed 1.2 X
Track quality 100.0 %
Test CRC 128E9B57
Copy CRC 128E9B57
Accurately ripped (confidence 6) [233DB3C3] (AR v2)
Copy OK
Track 4
Filename D:\_EAC\The Sergio Mendes Trio & Wanda De Sah - Brasil '65 (1965) {FLAC] {TOCJ-66624}\04 - Tristeza Em Mim.wav
Pre-gap length 0:00:02.28
Peak level 95.8 %
Extraction speed 1.2 X
Track quality 100.0 %
Test CRC 288ACFB7
Copy CRC 288ACFB7
Accurately ripped (confidence 6) [53445484] (AR v2)
Copy OK
Track 5
Filename D:\_EAC\The Sergio Mendes Trio & Wanda De Sah - Brasil '65 (1965) {FLAC] {TOCJ-66624}\05 - Aquarius.wav
Pre-gap length 0:00:02.28
Peak level 92.3 %
Extraction speed 1.1 X
Track quality 99.9 %
Test CRC 1F958812
Copy CRC 1F958812
Accurately ripped (confidence 6) [D38E5391] (AR v2)
Copy OK
Track 6
Filename D:\_EAC\The Sergio Mendes Trio & Wanda De Sah - Brasil '65 (1965) {FLAC] {TOCJ-66624}\06 - One Note Samba.wav
Pre-gap length 0:00:02.28
Peak level 96.2 %
Extraction speed 1.1 X
Track quality 99.9 %
Test CRC 770B7E14
Copy CRC 770B7E14
Accurately ripped (confidence 6) [C984A26E] (AR v2)
Copy OK
Track 7
Filename D:\_EAC\The Sergio Mendes Trio & Wanda De Sah - Brasil '65 (1965) {FLAC] {TOCJ-66624}\07 - She's A Carioca.wav
Pre-gap length 0:00:02.43
Peak level 100.0 %
Extraction speed 1.5 X
Track quality 100.0 %
Test CRC F889FB35
Copy CRC F889FB35
Accurately ripped (confidence 6) [324E92B6] (AR v2)
Copy OK
Track 8
Filename D:\_EAC\The Sergio Mendes Trio & Wanda De Sah - Brasil '65 (1965) {FLAC] {TOCJ-66624}\08 - Muito a Vontade.wav
Pre-gap length 0:00:02.28
Peak level 95.7 %
Extraction speed 1.6 X
Track quality 100.0 %
Test CRC 5E158508
Copy CRC 5E158508
Accurately ripped (confidence 6) [B9A668F0] (AR v2)
Copy OK
Track 9
Filename D:\_EAC\The Sergio Mendes Trio & Wanda De Sah - Brasil '65 (1965) {FLAC] {TOCJ-66624}\09 - Let Me (Deixa).wav
Pre-gap length 0:00:02.28
Peak level 100.0 %
Extraction speed 1.6 X
Track quality 100.0 %
Test CRC 22C4ECF8
Copy CRC 22C4ECF8
Accurately ripped (confidence 6) [A085C670] (AR v2)
Copy OK
Track 10
Filename D:\_EAC\The Sergio Mendes Trio & Wanda De Sah - Brasil '65 (1965) {FLAC] {TOCJ-66624}\10 - Consolacao.wav
Pre-gap length 0:00:02.28
Peak level 100.0 %
Extraction speed 1.7 X
Track quality 100.0 %
Test CRC FDDDEDA9
Copy CRC FDDDEDA9
Accurately ripped (confidence 6) [4803FCF1] (AR v2)
Copy OK
Track 11
Filename D:\_EAC\The Sergio Mendes Trio & Wanda De Sah - Brasil '65 (1965) {FLAC] {TOCJ-66624}\11 - Reza.wav
Pre-gap length 0:00:02.28
Peak level 100.0 %
Extraction speed 1.7 X
Track quality 100.0 %
Test CRC F33023D8
Copy CRC F33023D8
Accurately ripped (confidence 6) [2BA4E515] (AR v2)
Copy OK
All tracks accurately ripped
No errors occurred
End of status report
==== Log checksum 2E13DA694F280FC7DA5DABD30B73C6863B57D3117700D03DD128D663ECFD7676 ====
 
Содержание индексной карты (.CUE)
REM GENRE Jazz
REM DATE 1965
REM DISCID 8A074B0B
REM COMMENT "ExactAudioCopy v1.1"
PERFORMER "The Sergio Mendes Trio & Wanda De Sah"
TITLE "Brasil '65"
FILE "01 - So Nice (Samba de Verao).wav" WAVE
TRACK 01 AUDIO
TITLE "So Nice (Samba de Verao)"
PERFORMER "The Sergio Mendes Trio & Wanda De Sah"
INDEX 01 00:00:00
TRACK 02 AUDIO
TITLE "Favela"
PERFORMER "The Sergio Mendes Trio & Wanda De Sah"
INDEX 00 02:12:57
FILE "02 - Favela.wav" WAVE
INDEX 01 00:00:00
TRACK 03 AUDIO
TITLE "Berimbau"
PERFORMER "The Sergio Mendes Trio & Wanda De Sah"
INDEX 00 02:56:43
FILE "03 - Berimbau.wav" WAVE
INDEX 01 00:00:00
TRACK 04 AUDIO
TITLE "Tristeza Em Mim"
PERFORMER "The Sergio Mendes Trio & Wanda De Sah"
INDEX 00 03:19:50
FILE "04 - Tristeza Em Mim.wav" WAVE
INDEX 01 00:00:00
TRACK 05 AUDIO
TITLE "Aquarius"
PERFORMER "The Sergio Mendes Trio & Wanda De Sah"
INDEX 00 02:00:55
FILE "05 - Aquarius.wav" WAVE
INDEX 01 00:00:00
TRACK 06 AUDIO
TITLE "One Note Samba"
PERFORMER "The Sergio Mendes Trio & Wanda De Sah"
INDEX 00 02:25:01
FILE "06 - One Note Samba.wav" WAVE
INDEX 01 00:00:00
TRACK 07 AUDIO
TITLE "She's A Carioca"
PERFORMER "The Sergio Mendes Trio & Wanda De Sah"
INDEX 00 02:21:65
FILE "07 - She's A Carioca.wav" WAVE
INDEX 01 00:00:00
TRACK 08 AUDIO
TITLE "Muito a Vontade"
PERFORMER "The Sergio Mendes Trio & Wanda De Sah"
INDEX 00 03:25:74
FILE "08 - Muito a Vontade.wav" WAVE
INDEX 01 00:00:00
TRACK 09 AUDIO
TITLE "Let Me (Deixa)"
PERFORMER "The Sergio Mendes Trio & Wanda De Sah"
INDEX 00 02:59:37
FILE "09 - Let Me (Deixa).wav" WAVE
INDEX 01 00:00:00
TRACK 10 AUDIO
TITLE "Consolacao"
PERFORMER "The Sergio Mendes Trio & Wanda De Sah"
INDEX 00 02:50:53
FILE "10 - Consolacao.wav" WAVE
INDEX 01 00:00:00
TRACK 11 AUDIO
TITLE "Reza"
PERFORMER "The Sergio Mendes Trio & Wanda De Sah"
INDEX 00 03:11:65
FILE "11 - Reza.wav" WAVE
INDEX 01 00:00:00
21:26
239
Нет комментариев. Ваш будет первым!