Поиск

(Latin Jazz) [CD] Sergio Mendes - Dance Moderno (1961) - 2001, FLAC (tracks+.cue), lossless

(Latin Jazz) [CD] Sergio Mendes - Dance Moderno (1961) - 2001, FLAC (tracks+.cue), lossless
Треклист:
Sergio Mendes - Dance Moderno (1961) Жанр: Latin Jazz
Носитель: CD
Год издания: 2001
Издатель (лейбл): Philips
Номер по каталогу: CD 630.491
Аудиокодек: FLAC (*.flac)
Тип рипа: tracks+.cue
Битрейт аудио: lossless
Продолжительность: 29:58
Источник (релизер): What.cd (calanc)
Наличие сканов в содержимом раздачи: да
Треклист:
01. Oba-La-La (2:29)
02. Love For Sale (3:00)
03. Tristeza De Nos Dois (2:13)
04. What Is This Thing Called Love? (2:33)
05. Olhou Para Mim (2:51)
06. Satin Doll (2:45)
07. Tema Sem Palavras (1:59)
08. On Green Dolphin Street (2:47)
09. Outra Vez (2:24)
10. Disa (2:41)
11. Nica's Dream (2:47)
12. Diagonal (1:28)
 
 
Лог создания рипа
Exact Audio Copy V1.0 beta 4 from 7. December 2014
EAC extraction logfile from 24. February 2015, 14:50
Sergio Mendes / Dance Moderno
Used drive : HL-DT-STDVD+-RW GH82N Adapter: 1 ID: 0
Read mode : Secure
Utilize accurate stream : Yes
Defeat audio cache : Yes
Make use of C2 pointers : No
Read offset correction : 667
Overread into Lead-In and Lead-Out : No
Fill up missing offset samples with silence : Yes
Delete leading and trailing silent blocks : No
Null samples used in CRC calculations : Yes
Used interface : Native Win32 interface for Win NT & 2000
Gap handling : Appended to previous track
Used output format : User Defined Encoder
Selected bitrate : 1024 kBit/s
Quality : High
Add ID3 tag : No
Command line compressor : C:\Program Files (x86)\Exact Audio Copy\Flac\flac.exe
Additional command line options : -8 -V -T "ARTIST=%artist%" -T "TITLE=%title%" -T "ALBUM=%albumtitle%" -T "DATE=%year%" -T "TRACKNUMBER=%tracknr%" -T "GENRE=%genre%" -T "PERFORMER=%albuminterpret%" -T "COMPOSER=%composer%" %haslyrics%--tag-from-file=LYRICS="%lyricsfile%"%haslyrics% -T "ALBUMARTIST=%albumartist%" -T "DISCNUMBER=%cdnumber%" -T "TOTALDISCS=%totalcds%" -T "TOTALTRACKS=%numtracks%" -T "COMMENT=%comment%" %source% -o %dest%
TOC of the extracted CD
Track | Start | Length | Start sector | End sector
---------------------------------------------------------
1 | 0:00.00 | 2:28.43 | 0 | 11142
2 | 2:28.43 | 3:00.00 | 11143 | 24642
3 | 5:28.43 | 2:13.37 | 24643 | 34654
4 | 7:42.05 | 2:33.15 | 34655 | 46144
5 | 10:15.20 | 2:50.45 | 46145 | 58939
6 | 13:05.65 | 2:44.60 | 58940 | 71299
7 | 15:50.50 | 1:59.30 | 71300 | 80254
8 | 17:50.05 | 2:47.30 | 80255 | 92809
9 | 20:37.35 | 2:24.15 | 92810 | 103624
10 | 23:01.50 | 2:40.45 | 103625 | 115669
11 | 25:42.20 | 2:47.08 | 115670 | 128202
12 | 28:29.28 | 1:28.20 | 128203 | 134822
Track 1
Filename C:\FLACs\Sergio Mendes - Dance Moderno (1961) [FLAC]\01 - Oba-La-La.wav
Pre-gap length 0:00:02.00
Peak level 100.0 %
Extraction speed 1.6 X
Track quality 100.0 %
Test CRC EC3EFEB8
Copy CRC EC3EFEB8
Track not present in AccurateRip database
Copy OK
Track 2
Filename C:\FLACs\Sergio Mendes - Dance Moderno (1961) [FLAC]\02 - Love For Sale.wav
Peak level 97.3 %
Extraction speed 1.9 X
Track quality 100.0 %
Test CRC 1F326481
Copy CRC 1F326481
Track not present in AccurateRip database
Copy OK
Track 3
Filename C:\FLACs\Sergio Mendes - Dance Moderno (1961) [FLAC]\03 - Tristeza De Nos Dois.wav
Peak level 91.5 %
Extraction speed 1.9 X
Track quality 100.0 %
Test CRC 01429541
Copy CRC 01429541
Track not present in AccurateRip database
Copy OK
Track 4
Filename C:\FLACs\Sergio Mendes - Dance Moderno (1961) [FLAC]\04 - What Is This Thing Called Love.wav
Peak level 100.0 %
Extraction speed 2.0 X
Track quality 100.0 %
Test CRC C74D7160
Copy CRC C74D7160
Track not present in AccurateRip database
Copy OK
Track 5
Filename C:\FLACs\Sergio Mendes - Dance Moderno (1961) [FLAC]\05 - Olhou Para Mim.wav
Peak level 100.0 %
Extraction speed 2.1 X
Track quality 100.0 %
Test CRC 72A37172
Copy CRC 72A37172
Track not present in AccurateRip database
Copy OK
Track 6
Filename C:\FLACs\Sergio Mendes - Dance Moderno (1961) [FLAC]\06 - Satin Doll.wav
Peak level 99.9 %
Extraction speed 2.3 X
Track quality 100.0 %
Test CRC 24D83132
Copy CRC 24D83132
Track not present in AccurateRip database
Copy OK
Track 7
Filename C:\FLACs\Sergio Mendes - Dance Moderno (1961) [FLAC]\07 - Tema Sem Palavras.wav
Peak level 100.0 %
Extraction speed 2.2 X
Track quality 100.0 %
Test CRC 140E5ED6
Copy CRC 140E5ED6
Track not present in AccurateRip database
Copy OK
Track 8
Filename C:\FLACs\Sergio Mendes - Dance Moderno (1961) [FLAC]\08 - On Green Dolphin Street.wav
Peak level 100.0 %
Extraction speed 2.5 X
Track quality 100.0 %
Test CRC 4B8B7F40
Copy CRC 4B8B7F40
Track not present in AccurateRip database
Copy OK
Track 9
Filename C:\FLACs\Sergio Mendes - Dance Moderno (1961) [FLAC]\09 - Outra Vez.wav
Peak level 93.7 %
Extraction speed 2.5 X
Track quality 100.0 %
Test CRC 3650F9B8
Copy CRC 3650F9B8
Track not present in AccurateRip database
Copy OK
Track 10
Filename C:\FLACs\Sergio Mendes - Dance Moderno (1961) [FLAC]\10 - Disa.wav
Peak level 100.0 %
Extraction speed 2.6 X
Track quality 100.0 %
Test CRC 4E5396EB
Copy CRC 4E5396EB
Track not present in AccurateRip database
Copy OK
Track 11
Filename C:\FLACs\Sergio Mendes - Dance Moderno (1961) [FLAC]\11 - Nica's Dream.wav
Peak level 100.0 %
Extraction speed 2.7 X
Track quality 100.0 %
Test CRC ED0B2E79
Copy CRC ED0B2E79
Track not present in AccurateRip database
Copy OK
Track 12
Filename C:\FLACs\Sergio Mendes - Dance Moderno (1961) [FLAC]\12 - Diagonal.wav
Peak level 99.8 %
Extraction speed 2.4 X
Track quality 100.0 %
Test CRC F639A7DD
Copy CRC F639A7DD
Track not present in AccurateRip database
Copy OK
None of the tracks are present in the AccurateRip database
No errors occurred
End of status report
---- CUETools DB Plugin V2.1.4
[CTDB TOCID: 7jLIv1qfsmAW1zOo2Umq1R7TlKo-] disk not present in database
Submit result: 7jLIv1qfsmAW1zOo2Umq1R7TlKo- has been uploaded
==== Log checksum D23AE3E25D13350549D22B707465EDE787C70A633DB7AA29B40145B19D5540CB ====
 
Содержание индексной карты (.CUE)
REM GENRE Jazz
REM DATE 1961
REM DISCID 9007050C
REM COMMENT "ExactAudioCopy v1.0b4"
CATALOG 0000000000000
PERFORMER "Sergio Mendes"
TITLE "Dance Moderno"
FILE "01 - Oba-La-La.wav" WAVE
TRACK 01 AUDIO
TITLE "Oba-La-La"
PERFORMER "Sergio Mendes"
INDEX 01 00:00:00
FILE "02 - Love For Sale.wav" WAVE
TRACK 02 AUDIO
TITLE "Love For Sale"
PERFORMER "Sergio Mendes"
INDEX 01 00:00:00
FILE "03 - Tristeza De Nos Dois.wav" WAVE
TRACK 03 AUDIO
TITLE "Tristeza De Nos Dois"
PERFORMER "Sergio Mendes"
INDEX 01 00:00:00
FILE "04 - What Is This Thing Called Love.wav" WAVE
TRACK 04 AUDIO
TITLE "What Is This Thing Called Love?"
PERFORMER "Sergio Mendes"
INDEX 01 00:00:00
FILE "05 - Olhou Para Mim.wav" WAVE
TRACK 05 AUDIO
TITLE "Olhou Para Mim"
PERFORMER "Sergio Mendes"
INDEX 01 00:00:00
FILE "06 - Satin Doll.wav" WAVE
TRACK 06 AUDIO
TITLE "Satin Doll"
PERFORMER "Sergio Mendes"
INDEX 01 00:00:00
FILE "07 - Tema Sem Palavras.wav" WAVE
TRACK 07 AUDIO
TITLE "Tema Sem Palavras"
PERFORMER "Sergio Mendes"
INDEX 01 00:00:00
FILE "08 - On Green Dolphin Street.wav" WAVE
TRACK 08 AUDIO
TITLE "On Green Dolphin Street"
PERFORMER "Sergio Mendes"
INDEX 01 00:00:00
FILE "09 - Outra Vez.wav" WAVE
TRACK 09 AUDIO
TITLE "Outra Vez"
PERFORMER "Sergio Mendes"
INDEX 01 00:00:00
FILE "10 - Disa.wav" WAVE
TRACK 10 AUDIO
TITLE "Disa"
PERFORMER "Sergio Mendes"
INDEX 01 00:00:00
FILE "11 - Nica's Dream.wav" WAVE
TRACK 11 AUDIO
TITLE "Nica's Dream"
PERFORMER "Sergio Mendes"
INDEX 01 00:00:00
FILE "12 - Diagonal.wav" WAVE
TRACK 12 AUDIO
TITLE "Diagonal"
PERFORMER "Sergio Mendes"
INDEX 01 00:00:00
16:59
272
Нет комментариев. Ваш будет первым!