Поиск

(Latin Jazz) [CD] Sap Big Band - No More Blues - 2009, FLAC (image+.cue), lossless

(Latin Jazz) [CD] Sap Big Band - No More Blues - 2009, FLAC (image+.cue), lossless
Треклист:
Sap Big Band / No More Blues
Жанр: Latin Jazz
Носитель: CD
Год издания: 2009
Аудиокодек: FLAC (*.flac)
Тип рипа: image+.cue
Битрейт аудио: lossless
Продолжительность: 46:52
Источник (релизер): my disc
Наличие сканов в содержимом раздачи: да
Треклист:
01. Cubano Chant [0:03:51.74]
02. A Night In Tunisia [0:06:45.61]
03. Quiet Nights Of Quiet Stars (Corcovado) [0:05:35.66]
04. Vamos A Bailar [0:04:14.74]
05. Chega De Saudade (No More Blues) [0:03:57.06]
06. Nature Boy [0:05:19.60]
07. Afro Blue [0:05:44.06]
08. Why Not [0:04:33.13]
09. The Girl From Ipanema [0:02:58.29]
10. El Centro [0:03:51.14]
 
Лог создания рипа
Exact Audio Copy V1.0 beta 3 from 29. August 2011
Отчёт EAC об извлечении, выполненном 18. декабря 2013, 17:59
Sap Big Band / No More Blues
Дисковод: TSSTcorpCDDVDW SH-224DB Adapter: 1 ID: 0
Режим чтения : Достоверность
Использование точного потока : Да
Отключение кэша аудио : Да
Использование указателей C2 : Нет
Коррекция смещения при чтении : 6
Способность читать области Lead-in и Lead-out : Нет
Заполнение пропущенных сэмплов тишиной : Да
Удаление блоков с тишиной в начале и конце : Нет
При вычислениях CRC использовались нулевые сэмплы : Да
Интерфейс : Встроенный Win32-интерфейс для Win NT/2000
Выходной формат : Пользовательский кодировщик
Выбранный битрейт : 768 kBit/s
Качество : Высокий
Добавление ID3-тега : Нет
Утилита сжатия : C:\Program Files\Exact Audio Copy\Flac\flac.exe
Дополнительные параметры : -V -8 -T "Date=%year%" -T "Genre=%genre%" %source%
TOC извлечённого CD
Трек | Старт | Длительность | Начальный сектор | Конечный сектор
---------------------------------------------------------------------
1 | 0:00.00 | 3:51.74 | 0 | 17398
2 | 3:51.74 | 6:45.61 | 17399 | 47834
3 | 10:37.60 | 5:35.66 | 47835 | 73025
4 | 16:13.51 | 4:14.74 | 73026 | 92149
5 | 20:28.50 | 3:57.06 | 92150 | 109930
6 | 24:25.56 | 5:19.60 | 109931 | 133915
7 | 29:45.41 | 5:44.06 | 133916 | 159721
8 | 35:29.47 | 4:33.13 | 159722 | 180209
9 | 40:02.60 | 2:58.29 | 180210 | 193588
10 | 43:01.14 | 3:51.14 | 193589 | 210927
Характеристики диапазона извлечения и сообщения об ошибках
Выбранный диапазон
Имя файла D:\lo$$le$$\sap big band'09\Sap Big Band - No More Blues.wav
Пиковый уровень 96.6 %
Скорость извлечения 5.4 X
Качество диапазона 99.9 %
CRC теста B0820514
CRC копии B0820514
Копирование... OK
Ошибок не произошло
Конец отчёта
==== Контрольная сумма отчёта 62EC4E0DC601E97EE8320A8AFC1E4E188F9882595004D642B81A1F934D99BF40 ====
Доп. информация: Conducted by Thomas Stiffling.
14:12
388
Нет комментариев. Ваш будет первым!