Поиск

(Latin Jazz) [CD] Minino Garay - Minino Garay y los Tambores del Sur - 2002, FLAC (tracks+.cue), lossless

(Latin Jazz) [CD] Minino Garay - Minino Garay y los Tambores del Sur - 2002, FLAC (tracks+.cue), lossless
Треклист:
Minino Garay - Minino Garay y los Tambores del Sur
Жанр: Latin Jazz
Носитель: CD
Страна-производитель диска: Франция
Год издания: 2002
Издатель (лейбл): Faces/Sunnyside
Номер по каталогу: 017 126-2
Аудиокодек: FLAC (*.flac)
Тип рипа: tracks+.cue
Битрейт аудио: lossless
Продолжительность: 50:39
Источник (релизер): tdelyon (what)
Наличие сканов в содержимом раздачи: да
Треклист:
01. Caribe (5:37)
02. Onomatopee (4:28)
03. Sombras (2:31)
04. Chacarera del Violin (3:01)
05. La Celosa de Tu Vieja (4:07)
06. Tema de Maela (6:38)
07. Speaking Tango (4:39)
08. Elisa (3:04)
09. 20 Anos de Pasion (2:22)
10. Mitos (2:34)
11. Gato de Cosquin (3:09)
12. Venga (3:07)
13. Louanges du Sud (5:22)
 
Лог создания рипа
Exact Audio Copy V1.0 beta 3 from 29. August 2011
EAC extraction logfile from 22. November 2014, 17:49
Minino Garaÿ / Minino Garaÿ Y Los Tambores Del Sur
Used drive : PHILIPS SPD3400CC Adapter: 0 ID: 0
Read mode : Secure
Utilize accurate stream : Yes
Defeat audio cache : Yes
Make use of C2 pointers : No
Read offset correction : 6
Overread into Lead-In and Lead-Out : No
Fill up missing offset samples with silence : Yes
Delete leading and trailing silent blocks : No
Null samples used in CRC calculations : Yes
Used interface : Native Win32 interface for Win NT & 2000
Gap handling : Appended to previous track
Used output format : User Defined Encoder
Selected bitrate : 1024 kBit/s
Quality : High
Add ID3 tag : No
Command line compressor : C:\Program Files (x86)\Exact Audio Copy\FLAC\FLAC.EXE
Additional command line options : -8 -V -T "ARTIST=%artist%" -T "TITLE=%title%" -T "ALBUM=%albumtitle%" -T "DATE=%year%" -T "TRACKNUMBER=%tracknr%" -T "TOTALTRACKS=%numtracks%" -T "GENRE=%genre%" -T "ALBUM ARTIST=%albumartist%" -T "ALBUMARTIST=%albumartist%" -T "COMMENT=EAC V1.0 beta 3, Secure Mode, Test & Copy, AccurateRip, FLAC -8" %source%
TOC of the extracted CD
Track | Start | Length | Start sector | End sector
---------------------------------------------------------
1 | 0:00.00 | 5:36.41 | 0 | 25240
2 | 5:36.41 | 4:27.43 | 25241 | 45308
3 | 10:04.09 | 2:31.07 | 45309 | 56640
4 | 12:35.16 | 3:01.25 | 56641 | 70240
5 | 15:36.41 | 4:06.63 | 70241 | 88753
6 | 19:43.29 | 6:38.28 | 88754 | 118631
7 | 26:21.57 | 4:39.12 | 118632 | 139568
8 | 31:00.69 | 3:04.31 | 139569 | 153399
9 | 34:05.25 | 2:21.47 | 153400 | 164021
10 | 36:26.72 | 2:34.29 | 164022 | 175600
11 | 39:01.26 | 3:08.62 | 175601 | 189762
12 | 42:10.13 | 3:07.33 | 189763 | 203820
13 | 45:17.46 | 5:22.24 | 203821 | 227994
Track 1
Filename C:\Users\Maison\Downloads\Rips\01 - Caribe.wav
Pre-gap length 0:00:02.00
Peak level 100.0 %
Extraction speed 1.9 X
Track quality 100.0 %
Test CRC B4D4CBC6
Copy CRC B4D4CBC6
Accurately ripped (confidence 2) [4F5F1679] (AR v1)
Copy OK
Track 2
Filename C:\Users\Maison\Downloads\Rips\02 - Onomatopée.wav
Pre-gap length 0:00:00.72
Peak level 100.0 %
Extraction speed 1.9 X
Track quality 99.9 %
Test CRC B8CA0116
Copy CRC B8CA0116
Accurately ripped (confidence 2) [6499CEB6] (AR v1)
Copy OK
Track 3
Filename C:\Users\Maison\Downloads\Rips\03 - Sombras.wav
Pre-gap length 0:00:01.46
Peak level 100.0 %
Extraction speed 2.0 X
Track quality 100.0 %
Test CRC 2F1B703B
Copy CRC 2F1B703B
Accurately ripped (confidence 2) [629C15C6] (AR v1)
Copy OK
Track 4
Filename C:\Users\Maison\Downloads\Rips\04 - Chacarera Del Violin.wav
Peak level 100.0 %
Extraction speed 2.2 X
Track quality 100.0 %
Test CRC C76B7CE7
Copy CRC C76B7CE7
Accurately ripped (confidence 2) [C7B9A496] (AR v1)
Copy OK
Track 5
Filename C:\Users\Maison\Downloads\Rips\05 - La Celosa De Tu Vieja.wav
Peak level 100.0 %
Extraction speed 2.4 X
Track quality 100.0 %
Test CRC 3BF350C5
Copy CRC 3BF350C5
Accurately ripped (confidence 2) [EC37C37A] (AR v1)
Copy OK
Track 6
Filename C:\Users\Maison\Downloads\Rips\06 - Tema De Maëla.wav
Pre-gap length 0:00:02.51
Peak level 100.0 %
Extraction speed 2.5 X
Track quality 99.9 %
Test CRC B8EB3BAC
Copy CRC B8EB3BAC
Accurately ripped (confidence 2) [D10B9207] (AR v1)
Copy OK
Track 7
Filename C:\Users\Maison\Downloads\Rips\07 - Speaking Tango.wav
Pre-gap length 0:00:01.39
Peak level 100.0 %
Extraction speed 2.9 X
Track quality 100.0 %
Test CRC BF9B69B7
Copy CRC BF9B69B7
Accurately ripped (confidence 2) [D2E29055] (AR v1)
Copy OK
Track 8
Filename C:\Users\Maison\Downloads\Rips\08 - Elisa.wav
Pre-gap length 0:00:00.11
Peak level 100.0 %
Extraction speed 2.8 X
Track quality 100.0 %
Test CRC 433323B4
Copy CRC 433323B4
Accurately ripped (confidence 2) [E23F7BBA] (AR v1)
Copy OK
Track 9
Filename C:\Users\Maison\Downloads\Rips\09 - 20 Años De Pasión.wav
Peak level 100.0 %
Extraction speed 2.8 X
Track quality 100.0 %
Test CRC 168C5EB5
Copy CRC 168C5EB5
Accurately ripped (confidence 2) [AE61BFA4] (AR v1)
Copy OK
Track 10
Filename C:\Users\Maison\Downloads\Rips\10 - Mitos.wav
Pre-gap length 0:00:02.54
Peak level 100.0 %
Extraction speed 2.1 X
Track quality 99.9 %
Test CRC 714427E1
Copy CRC 714427E1
Accurately ripped (confidence 2) [E0743CC1] (AR v1)
Copy OK
Track 11
Filename C:\Users\Maison\Downloads\Rips\11 - Gato De Cosquín.wav
Peak level 100.0 %
Extraction speed 3.1 X
Track quality 100.0 %
Test CRC EC376697
Copy CRC EC376697
Accurately ripped (confidence 2) [2C3A26F2] (AR v1)
Copy OK
Track 12
Filename C:\Users\Maison\Downloads\Rips\12 - Venga.wav
Pre-gap length 0:00:01.09
Peak level 100.0 %
Extraction speed 3.1 X
Track quality 100.0 %
Test CRC F2A3E410
Copy CRC F2A3E410
Accurately ripped (confidence 2) [64EB5D29] (AR v1)
Copy OK
Track 13
Filename C:\Users\Maison\Downloads\Rips\13 - Louanges Du Sud.wav
Pre-gap length 0:00:02.31
Peak level 100.0 %
Extraction speed 3.5 X
Track quality 100.0 %
Test CRC 6969D3D9
Copy CRC 6969D3D9
Accurately ripped (confidence 2) [3663921A] (AR v1)
Copy OK
All tracks accurately ripped
No errors occurred
End of status report
==== Log checksum E0460968B1241DC24DF5A0A7893A6513B5A2531DA81469630895F94C83D789CB ====
 
Содержание индексной карты (.CUE)
REM GENRE Jazz
REM DATE 2002
REM DISCID BF0BDF0D
REM COMMENT "ExactAudioCopy v1.0b3"
PERFORMER "Minino Garay"
TITLE "Minino Garay y los Tambores del Sur"
FILE "01 - Caribe.wav" WAVE
TRACK 01 AUDIO
TITLE "Caribe"
PERFORMER "Minino Garay"
ISRC FR07V0200010
INDEX 01 00:00:00
TRACK 02 AUDIO
TITLE "Onomatopee"
PERFORMER "Minino Garay"
ISRC FR07V0200020
INDEX 00 05:35:44
FILE "02 - Onomatopee.wav" WAVE
INDEX 01 00:00:00
TRACK 03 AUDIO
TITLE "Sombras"
PERFORMER "Minino Garay"
ISRC FR07V0200030
INDEX 00 04:25:72
FILE "03 - Sombras.wav" WAVE
INDEX 01 00:00:00
FILE "04 - Chacarera del Violin.wav" WAVE
TRACK 04 AUDIO
TITLE "Chacarera del Violin"
PERFORMER "Minino Garay"
ISRC FR07V0200040
INDEX 01 00:00:00
FILE "05 - La Celosa de Tu Vieja.wav" WAVE
TRACK 05 AUDIO
TITLE "La Celosa de Tu Vieja"
PERFORMER "Minino Garay"
ISRC FR07V0200050
INDEX 01 00:00:00
TRACK 06 AUDIO
TITLE "Tema de Maela"
PERFORMER "Minino Garay"
ISRC FR07V0200060
INDEX 00 04:04:12
FILE "06 - Tema de Maela.wav" WAVE
INDEX 01 00:00:00
TRACK 07 AUDIO
TITLE "Speaking Tango"
PERFORMER "Minino Garay"
ISRC FR07V0200070
INDEX 00 06:36:64
FILE "07 - Speaking Tango.wav" WAVE
INDEX 01 00:00:00
TRACK 08 AUDIO
TITLE "Elisa"
PERFORMER "Minino Garay"
ISRC FR07V0200080
INDEX 00 04:39:01
FILE "08 - Elisa.wav" WAVE
INDEX 01 00:00:00
FILE "09 - 20 Anos de Pasion.wav" WAVE
TRACK 09 AUDIO
TITLE "20 Anos de Pasion"
PERFORMER "Minino Garay"
ISRC FR07V0200090
INDEX 01 00:00:00
TRACK 10 AUDIO
TITLE "Mitos"
PERFORMER "Minino Garay"
ISRC FR07V0200100
INDEX 00 02:18:68
FILE "10 - Mitos.wav" WAVE
INDEX 01 00:00:00
FILE "11 - Gato de Cosquin.wav" WAVE
TRACK 11 AUDIO
TITLE "Gato de Cosquin"
PERFORMER "Minino Garay"
ISRC FR07V0200110
INDEX 01 00:00:00
TRACK 12 AUDIO
TITLE "Venga"
PERFORMER "Minino Garay"
ISRC FR07V0200120
INDEX 00 03:07:53
FILE "12 - Venga.wav" WAVE
INDEX 01 00:00:00
TRACK 13 AUDIO
TITLE "Louanges du Sud"
PERFORMER "Minino Garay"
ISRC FR07V0200130
INDEX 00 03:05:02
FILE "13 - Louanges du Sud.wav" WAVE
INDEX 01 00:00:00
 
Отчет CUETools
[CUETools log; Date: 24.11.2014 22:35:56; Version: 2.1.5]
[CTDB TOCID: DfZmmvLc7NE8oAHhbyCgHLlJ7MY-] found.
Track | CTDB Status
1 | (1/1) Accurately ripped
2 | (1/1) Accurately ripped
3 | (1/1) Accurately ripped
4 | (1/1) Accurately ripped
5 | (1/1) Accurately ripped
6 | (1/1) Accurately ripped
7 | (1/1) Accurately ripped
8 | (1/1) Accurately ripped
9 | (1/1) Accurately ripped
10 | (1/1) Accurately ripped
11 | (1/1) Accurately ripped
12 | (1/1) Accurately ripped
13 | (1/1) Accurately ripped
[AccurateRip ID: 0019506d-00f8f1f5-bf0bdf0d] found.
Track [ CRC | V2 ] Status
01 [4f5f1679|325e678d] (2+0/2) Accurately ripped
02 [6499ceb6|44c962ca] (2+0/2) Accurately ripped
03 [629c15c6|d76eee83] (2+0/2) Accurately ripped
04 [c7b9a496|ca48c752] (2+0/2) Accurately ripped
05 [ec37c37a|bb1d472b] (2+0/2) Accurately ripped
06 [d10b9207|37d13a03] (2+0/2) Accurately ripped
07 [d2e29055|bc697cac] (2+0/2) Accurately ripped
08 [e23f7bba|b9dad613] (2+0/2) Accurately ripped
09 [ae61bfa4|16c1cd9d] (2+0/2) Accurately ripped
10 [e0743cc1|1ff25b53] (2+0/2) Accurately ripped
11 [2c3a26f2|2715a590] (2+0/2) Accurately ripped
12 [64eb5d29|1a527f1e] (2+0/2) Accurately ripped
13 [3663921a|977e1bcd] (2+0/2) Accurately ripped
Track Peak [ CRC32 ] [W/O NULL] [ LOG ]
-- 100,0 [32EA0363] [BF864008]
01 100,0 [B4D4CBC6] [D77D860A] CRC32
02 100,0 [B8CA0116] [428622F9] CRC32
03 100,0 [2F1B703B] [9719EB42] CRC32
04 100,0 [C76B7CE7] [C38998B0] CRC32
05 100,0 [3BF350C5] [DFB4BF91] CRC32
06 100,0 [B8EB3BAC] [ACFF5C8C] CRC32
07 100,0 [BF9B69B7] [E505693C] CRC32
08 100,0 [433323B4] [FFCE04C5] CRC32
09 100,0 [168C5EB5] [AF0D13C3] CRC32
10 100,0 [714427E1] [A9747C75] CRC32
11 100,0 [EC376697] [77BEA668] CRC32
12 100,0 [F2A3E410] [1D5FC478] CRC32
13 100,0 [6969D3D9] [A3BDAD9E] CRC32
 
Review by Scott Yanow
Although somewhat jazzy at times and released on a jazz label (Sunnyside), this is very much a world music release. Vocalist/percussionist Minino Garay performs a variety of music influenced by rhythms and folk melodies from South America and India, and touched by such modern trends as rap (which is used sparingly). Violinist Line Kruse makes the biggest impression among the instrumentalists (particularly on "Gato de Cosquin"), and some of the singing uses call and response à la Cab Calloway. However, the lack of liner notes makes the Spanish lyrics incomprehensible to English speakers, although the drama of the music and the rich melodies compensate.
 
Состав
Minino Garay - vocals, percussion
Julien Lourau - tenor saxophone
Nicolas Genest - trumpet
Jean-Christophe Maillard - guitar
Alfonso Pacin - charango, guitar, violin
Gerardo Digiusto, Stephanus Vivens - piano
Jules Issac Bikoko - bass
Maxime Zampieri - drums
Eddy Tomassi, Pablo Mendez, Hector Gomez, Benjamin Henocq, Anga Diaz, Javier Estrella, Xavier Jouvelet - percussion
Daniel Mille - accordion
Eduardo Garcia - bandoneon
Louis Winsberg - saz
17:15
327
Нет комментариев. Ваш будет первым!