Поиск

(Latin Jazz) [CD] Eddie Palmieri (w/ Lalo Rodriguez) - The Sun of Latin Music - 1974 (2007), FLAC (tracks+.cue), lossless

(Latin Jazz) [CD] Eddie Palmieri (w/ Lalo Rodriguez) - The Sun of Latin Music - 1974 (2007), FLAC (tracks+.cue), lossless
Треклист:
Eddie Palmieri - The Sun of Latin Music
Жанр: Latin Jazz
Носитель: CD
Страна-производитель диска: Испания
Год издания: 1974 (2007)
Издатель (лейбл): Musical Productions
Аудиокодек: FLAC (*.flac)
Тип рипа: tracks+.cue
Битрейт аудио: lossless
Продолжительность: 37:37
Источник (релизер): vdown (what)
Наличие сканов в содержимом раздачи: нет
Треклист:
01. Nada de Ti (6:32)
02. Deseo Salvaje (3:41)
03. Una Rosa Espanola (5:22)
04. Nunca Contigo (3:51)
05. Un Dia Bonito (14:53)
06. Mi Cumbia (3:18)
Состав:
Eddie Palmieri - piano
Eddie "Gua-Gua" Rivera - bass
Tommy Lopez - bongo
Eladio Perez - conga
Nicky Marrero - timbales
Lalo Rodriguez - lead vocals
Mario Rivera - baritone saxophone, flute
Ronnie Cuber - tenor saxophone
Peter Gordon - French horn
Jose Rodriguez, Virgil Jones - trombones
Barry Rogers - trombone, tuba
Vitin Paz - trumpet
Tony Price - tuba
Alfredo De La Fe - violin
Jimmy Sabater, Willie Torres - coro
 
Лог создания рипа
Exact Audio Copy V0.99 prebeta 4 from 23. January 2008
EAC extraction logfile from 3. May 2008, 13:12
Eddie Palmieri / The Sun Of Latin Music
Used drive : PIONEER DVD-RW DVR-215D Adapter: 4 ID: 0
Read mode : Secure
Utilize accurate stream : Yes
Defeat audio cache : Yes
Make use of C2 pointers : No
Read offset correction : 48
Overread into Lead-In and Lead-Out : No
Fill up missing offset samples with silence : Yes
Delete leading and trailing silent blocks : No
Null samples used in CRC calculations : Yes
Used interface : Native Win32 interface for Win NT & 2000
Gap handling : Appended to previous track
Used output format : User Defined Encoder
Selected bitrate : 768 kBit/s
Quality : High
Add ID3 tag : No
Command line compressor : C:\Program Files\Exact Audio Copy\FLAC\FLAC.EXE
Additional command line options : -8 -V -T "ARTIST=%a" -T "TITLE=%t" -T "ALBUM=%g" -T "DATE=%y" -T "TRACKNUMBER=%n" -T "GENRE=%m" -T "COMMENT=EAC FLAC -8" %s
TOC of the extracted CD
Track | Start | Length | Start sector | End sector
---------------------------------------------------------
1 | 0:00.33 | 6:31.62 | 33 | 29419
2 | 6:32.20 | 3:41.00 | 29420 | 45994
3 | 10:13.20 | 5:21.38 | 45995 | 70107
4 | 15:34.58 | 3:51.32 | 70108 | 87464
5 | 19:26.15 | 14:52.40 | 87465 | 154404
6 | 34:18.55 | 3:18.03 | 154405 | 169257
Track 1
Filename G:\MP3\Eddie_Palmieri-The_Sun_Of_Latin_Music\01 - Nada de Ti.wav
Pre-gap length 0:00:02.44
Peak level 87.8 %
Track quality 99.9 %
Test CRC A8A9C3FB
Copy CRC A8A9C3FB
Track not present in AccurateRip database
Copy OK
Track 2
Filename G:\MP3\Eddie_Palmieri-The_Sun_Of_Latin_Music\02 - Deseo Salvaje.wav
Pre-gap length 0:00:02.82
Peak level 93.7 %
Track quality 100.0 %
Test CRC DFE978C5
Copy CRC DFE978C5
Track not present in AccurateRip database
Copy OK
Track 3
Filename G:\MP3\Eddie_Palmieri-The_Sun_Of_Latin_Music\03 - Una Rosa Espaсola.wav
Pre-gap length 0:00:02.86
Peak level 93.1 %
Track quality 100.0 %
Test CRC D4B7895A
Copy CRC D4B7895A
Track not present in AccurateRip database
Copy OK
Track 4
Filename G:\MP3\Eddie_Palmieri-The_Sun_Of_Latin_Music\04 - Nunca Contigo.wav
Pre-gap length 0:00:02.97
Peak level 80.5 %
Track quality 99.9 %
Test CRC CDDE5212
Copy CRC CDDE5212
Track not present in AccurateRip database
Copy OK
Track 5
Filename G:\MP3\Eddie_Palmieri-The_Sun_Of_Latin_Music\05 - Un Dia Bonito.wav
Pre-gap length 0:00:03.38
Peak level 76.3 %
Track quality 100.0 %
Test CRC DD35CBD1
Copy CRC DD35CBD1
Track not present in AccurateRip database
Copy OK
Track 6
Filename G:\MP3\Eddie_Palmieri-The_Sun_Of_Latin_Music\06 - Mi Cumbia.wav
Pre-gap length 0:00:03.68
Peak level 94.5 %
Track quality 100.0 %
Test CRC E1724C2A
Copy CRC E1724C2A
Track not present in AccurateRip database
Copy OK
None of the tracks are present in the AccurateRip database
No errors occurred
End of status report
 
Содержание индексной карты (.CUE)
REM GENRE Jazz
REM DATE 1974
REM DISCID 4808D006
REM COMMENT "ExactAudioCopy v0.99pb4"
PERFORMER "Eddie Palmieri"
TITLE "The Sun of Latin Music"
FILE "01 - Nada de Ti.wav" WAVE
TRACK 01 AUDIO
TITLE "Nada de Ti"
PERFORMER "Eddie Palmieri"
PREGAP 00:00:33
INDEX 01 00:00:00
TRACK 02 AUDIO
TITLE "Deseo Salvaje"
PERFORMER "Eddie Palmieri"
INDEX 00 06:29:00
FILE "02 - Deseo Salvaje.wav" WAVE
INDEX 01 00:00:00
TRACK 03 AUDIO
TITLE "Una Rosa Espanola"
PERFORMER "Eddie Palmieri"
INDEX 00 03:38:10
FILE "03 - Una Rosa Espanola.wav" WAVE
INDEX 01 00:00:00
TRACK 04 AUDIO
TITLE "Nunca Contigo"
PERFORMER "Eddie Palmieri"
INDEX 00 05:18:40
FILE "04 - Nunca Contigo.wav" WAVE
INDEX 01 00:00:00
TRACK 05 AUDIO
TITLE "Un Dia Bonito"
PERFORMER "Eddie Palmieri"
INDEX 00 03:48:03
FILE "05 - Un Dia Bonito.wav" WAVE
INDEX 01 00:00:00
TRACK 06 AUDIO
TITLE "Mi Cumbia"
PERFORMER "Eddie Palmieri"
INDEX 00 14:48:64
FILE "06 - Mi Cumbia.wav" WAVE
INDEX 01 00:00:00
 
Отчет CUETools
[CUETools log; Date: 16.07.2014 0:20:02; Version: 2.1.4]
Pregap length 00:00:33.
[CTDB TOCID: _95oMw_Dbpr9oaqAm8_00yYFwk4-] found.
Track | CTDB Status
1 | (1/1) Accurately ripped
2 | (1/1) Accurately ripped
3 | (1/1) Accurately ripped
4 | (1/1) Accurately ripped
5 | (1/1) Accurately ripped
6 | (1/1) Accurately ripped
[AccurateRip ID: 00087e8c-002e2bbb-4808d006] found.
Track [ CRC | V2 ] Status
01 [60eaab05|83e57dc3] (2+0/8) Accurately ripped
02 [e874e149|7db4a54a] (2+0/8) Accurately ripped
03 [989d40b3|84bd5e01] (2+0/8) Accurately ripped
04 [4751bb9b|2ff2b92b] (2+0/6) Accurately ripped
05 [4abf906f|58923105] (2+0/6) Accurately ripped
06 [377e3306|71a2e863] (2+0/6) Accurately ripped
Offsetted by 1995:
01 [4abe961d] (4/8) Accurately ripped
02 [6b2f4f0b] (4/8) Accurately ripped
03 [e62a1602] (4/8) Accurately ripped
04 [0bfd6b35] (4/6) Accurately ripped
05 [756fdabb] (4/6) Accurately ripped
06 [2e6710fd] (4/6) Accurately ripped
Track Peak [ CRC32 ] [W/O NULL] [ LOG ]
-- 94,5 [6E4BDDFD] [53434181]
01 87,8 [A8A9C3FB] [919FCCD4] CRC32
02 93,7 [DFE978C5] [4300D77B] CRC32
03 93,1 [D4B7895A] [8E500824] CRC32
04 80,5 [CDDE5212] [720324A8] CRC32
05 76,3 [DD35CBD1] [6A5F40DE] CRC32
06 94,5 [E1724C2A] [F6629CB1] CRC32
 
Review by Evan C. Gutierrez
A master of the traditional and the progressive, the styles of the past and the bright, swinging future, Eddie Palmieri is one of the most influential Latino pianists of the 20th century. His extreme versatility and artistic vision are brilliantly displayed on The Sun of Latin Music. While most Latin jazz musicians fall into either staunch traditionalism or pursuing progressive ideas to the detriment of groove and accessibility; Palmieri marries both ideals effortlessly. With smooth, danceable rhythm, lush vocals, and a clear center to the song, combined with sophisticated arrangements, tunes like "Desea Salvaje" and "Nunca Contigo" both swing the dancer and captivate the discriminating listener. Palmieri's interest in stylistic variety, including styles like danzon, guaguanco, and cumbia, not common of '70s era salsa, enrich the album and show off his versatility. "Un Dia Bonita," a Latin suite of sorts, give the listener a clear picture of both Palmieri's virtuosity and his adventurous compositional nature. Though over the course of the record there aren't any instrumental performances to rival the piano for attention, the fierce, fiery piano is plenty. Suitable for either the casual ear of the salsa fan, or the careful attention of the jazz aficionado, The Sun of Latin Music shines brightly, high above the horizon of its peers.
16:12
309
Нет комментариев. Ваш будет первым!