Поиск

(Latin Jazz) [CD] Eddie Palmieri - Lo Mejor de Eddie Palmieri (The Best Of) - 1992, FLAC (tracks+.cue), lossless

(Latin Jazz) [CD] Eddie Palmieri - Lo Mejor de Eddie Palmieri (The Best Of) - 1992, FLAC (tracks+.cue), lossless
Треклист:
Eddie Palmieri - Lo Mejor de Eddie Palmieri
Жанр: Latin Jazz
Носитель: CD
Страна-производитель диска: США
Год издания: 1992
Издатель (лейбл): Tico Records
Номер по каталогу: FACD 1317
Аудиокодек: FLAC (*.flac)
Тип рипа: tracks+.cue
Битрейт аудио: lossless
Продолжительность: 45:06
Источник (релизер): HardBop (what)
Наличие сканов в содержимом раздачи: нет
Треклист:
01. Muneca (4:05)
02. La Malanga (4:05)
03. Lindo Yambu (5:40)
04. African Twist (2:35)
05. Mi Mambo Conga (2:52)
06. Vamonos Pa'l Monte (7:11)
07. Campesina (El Pregon de la Montana) (3:58)
08. Si Hecho Palante (5:15)
09. Azucar (9:25)
 
Лог создания рипа
Exact Audio Copy V0.99 prebeta 5 from 4. May 2009
EAC extraction logfile from 2. September 2009, 15:51
Eddie Palmieri & His Orchestra / Lo Mejor De Eddie Palmieri
Used drive : HL-DT-STCD-RW GCE-8400B Adapter: 1 ID: 0
Read mode : Secure
Utilize accurate stream : Yes
Defeat audio cache : Yes
Make use of C2 pointers : No
Read offset correction : 12
Overread into Lead-In and Lead-Out : No
Fill up missing offset samples with silence : Yes
Delete leading and trailing silent blocks : No
Null samples used in CRC calculations : Yes
Used interface : Native Win32 interface for Win NT & 2000
Gap handling : Appended to previous track
Used output format : User Defined Encoder
Selected bitrate : 768 kBit/s
Quality : High
Add ID3 tag : No
Command line compressor : C:\Program Files\Exact Audio Copy\FLAC\FLAC.EXE
Additional command line options : -V -8 -T "artist=%a" -T "title=%t" -T "album=%g" -T "date=%y" -T "tracknumber=%n" -T "genre=%m" %s
TOC of the extracted CD
Track | Start | Length | Start sector | End sector
---------------------------------------------------------
1 | 0:00.00 | 4:04.45 | 0 | 18344
2 | 4:04.45 | 4:04.52 | 18345 | 36696
3 | 8:09.22 | 5:40.00 | 36697 | 62196
4 | 13:49.22 | 2:34.58 | 62197 | 73804
5 | 16:24.05 | 2:52.32 | 73805 | 86736
6 | 19:16.37 | 7:11.10 | 86737 | 119071
7 | 26:27.47 | 3:57.38 | 119072 | 136884
8 | 30:25.10 | 5:15.37 | 136885 | 160546
9 | 35:40.47 | 9:25.23 | 160547 | 202944
Track 1
Filename C:\Documents and Settings\Yosef\My Documents\T Music\Eddie Palmieri\The Best of (Lo Mejor De) Eddie Palmieri\Eddie Palmieri & His Orchestra - 1992 - Lo Mejor De Eddie Palmieri\01 - Eddie Palmieri , Muñeca.wav
Pre-gap length 0:00:02.00
Peak level 94.8 %
Track quality 100.0 %
Test CRC B77CE1CE
Copy CRC B77CE1CE
Track not present in AccurateRip database
Copy OK
Track 2
Filename C:\Documents and Settings\Yosef\My Documents\T Music\Eddie Palmieri\The Best of (Lo Mejor De) Eddie Palmieri\Eddie Palmieri & His Orchestra - 1992 - Lo Mejor De Eddie Palmieri\02 - R. Calzado , La Malanga.wav
Pre-gap length 0:00:02.77
Peak level 75.4 %
Track quality 99.9 %
Test CRC C8B403AE
Copy CRC C8B403AE
Track not present in AccurateRip database
Copy OK
Track 3
Filename C:\Documents and Settings\Yosef\My Documents\T Music\Eddie Palmieri\The Best of (Lo Mejor De) Eddie Palmieri\Eddie Palmieri & His Orchestra - 1992 - Lo Mejor De Eddie Palmieri\03 - I. Piñero , Lindo Yambú.wav
Pre-gap length 0:00:02.89
Peak level 88.2 %
Track quality 100.0 %
Test CRC 39F411A8
Copy CRC 39F411A8
Track not present in AccurateRip database
Copy OK
Track 4
Filename C:\Documents and Settings\Yosef\My Documents\T Music\Eddie Palmieri\The Best of (Lo Mejor De) Eddie Palmieri\Eddie Palmieri & His Orchestra - 1992 - Lo Mejor De Eddie Palmieri\04 - C.Ellis , African Twist.wav
Pre-gap length 0:00:03.22
Peak level 86.6 %
Track quality 100.0 %
Test CRC 4CEE1690
Copy CRC 4CEE1690
Track not present in AccurateRip database
Copy OK
Track 5
Filename C:\Documents and Settings\Yosef\My Documents\T Music\Eddie Palmieri\The Best of (Lo Mejor De) Eddie Palmieri\Eddie Palmieri & His Orchestra - 1992 - Lo Mejor De Eddie Palmieri\05 - Mozambique , Mi Mambo Conga.wav
Pre-gap length 0:00:03.06
Peak level 68.0 %
Track quality 100.0 %
Test CRC 7A84BE45
Copy CRC 7A84BE45
Track not present in AccurateRip database
Copy OK
Track 6
Filename C:\Documents and Settings\Yosef\My Documents\T Music\Eddie Palmieri\The Best of (Lo Mejor De) Eddie Palmieri\Eddie Palmieri & His Orchestra - 1992 - Lo Mejor De Eddie Palmieri\06 - Eddie Palmieri, I. Quintana , Vamonos Pal Monte.wav
Pre-gap length 0:00:04.09
Peak level 99.0 %
Track quality 100.0 %
Test CRC 9EF9D955
Copy CRC 9EF9D955
Track not present in AccurateRip database
Copy OK
Track 7
Filename C:\Documents and Settings\Yosef\My Documents\T Music\Eddie Palmieri\The Best of (Lo Mejor De) Eddie Palmieri\Eddie Palmieri & His Orchestra - 1992 - Lo Mejor De Eddie Palmieri\07 - El Pregón de la Montaña , Campesina.wav
Pre-gap length 0:00:03.36
Peak level 83.2 %
Track quality 100.0 %
Test CRC 5DD5309D
Copy CRC 5DD5309D
Track not present in AccurateRip database
Copy OK
Track 8
Filename C:\Documents and Settings\Yosef\My Documents\T Music\Eddie Palmieri\The Best of (Lo Mejor De) Eddie Palmieri\Eddie Palmieri & His Orchestra - 1992 - Lo Mejor De Eddie Palmieri\08 - Eddie Palmieri , Si Hecho Palante.wav
Pre-gap length 0:00:02.46
Peak level 75.1 %
Track quality 100.0 %
Test CRC 83A4D7C4
Copy CRC 83A4D7C4
Track not present in AccurateRip database
Copy OK
Track 9
Filename C:\Documents and Settings\Yosef\My Documents\T Music\Eddie Palmieri\The Best of (Lo Mejor De) Eddie Palmieri\Eddie Palmieri & His Orchestra - 1992 - Lo Mejor De Eddie Palmieri\09 - Eddie Palmieri , Azúcar.wav
Pre-gap length 0:00:02.69
Peak level 74.7 %
Track quality 100.0 %
Test CRC E3926BD5
Copy CRC E3926BD5
Track not present in AccurateRip database
Copy OK
None of the tracks are present in the AccurateRip database
No errors occurred
End of status report
 
Содержание индексной карты (.CUE)
REM GENRE Jazz
REM DATE 1992
REM DISCID 800A9109
REM COMMENT "ExactAudioCopy v0.99pb5"
PERFORMER "Eddie Palmieri"
TITLE "Lo Mejor de Eddie Palmieri"
FILE "01 - Muneca.wav" WAVE
TRACK 01 AUDIO
TITLE "Muneca"
PERFORMER "Eddie Palmieri"
INDEX 01 00:00:00
TRACK 02 AUDIO
TITLE "La Malanga"
PERFORMER "Eddie Palmieri"
INDEX 00 04:01:62
FILE "02 - La Malanga.wav" WAVE
INDEX 01 00:00:00
TRACK 03 AUDIO
TITLE "Lindo Yambu"
PERFORMER "Eddie Palmieri"
INDEX 00 04:01:60
FILE "03 - Lindo Yambu.wav" WAVE
INDEX 01 00:00:00
TRACK 04 AUDIO
TITLE "African Twist"
PERFORMER "Eddie Palmieri"
INDEX 00 05:36:58
FILE "04 - African Twist.wav" WAVE
INDEX 01 00:00:00
TRACK 05 AUDIO
TITLE "Mi Mambo Conga"
PERFORMER "Eddie Palmieri"
INDEX 00 02:31:53
FILE "05 - Mi Mambo Conga.wav" WAVE
INDEX 01 00:00:00
TRACK 06 AUDIO
TITLE "Vamonos Pa'l Monte"
PERFORMER "Eddie Palmieri"
INDEX 00 02:48:25
FILE "06 - Vamonos Pa'l Monte.wav" WAVE
INDEX 01 00:00:00
TRACK 07 AUDIO
TITLE "Campesina (El Pregon de la Montana)"
PERFORMER "Eddie Palmieri"
INDEX 00 07:07:58
FILE "07 - Campesina (El Pregon de la Montana).wav" WAVE
INDEX 01 00:00:00
TRACK 08 AUDIO
TITLE "Si Hecho Palante"
PERFORMER "Eddie Palmieri"
INDEX 00 03:55:03
FILE "08 - Si Hecho Palante.wav" WAVE
INDEX 01 00:00:00
TRACK 09 AUDIO
TITLE "Azucar"
PERFORMER "Eddie Palmieri"
INDEX 00 05:12:60
FILE "09 - Azucar.wav" WAVE
INDEX 01 00:00:00
 
Отчет CUETools
[CUETools log; Date: 16.07.2014 1:24:25; Version: 2.1.4]
[CTDB TOCID: _t.NgurPi5wsXq0WkWhNfXnbSGY-] found.
Track | CTDB Status
1 | (2/2) Accurately ripped
2 | (2/2) Accurately ripped
3 | (2/2) Accurately ripped
4 | (2/2) Accurately ripped
5 | (2/2) Accurately ripped
6 | (2/2) Accurately ripped
7 | (2/2) Accurately ripped
8 | (2/2) Accurately ripped
9 | (2/2) Accurately ripped
[AccurateRip ID: 000db0ce-00660ce6-800a9109] found.
Track [ CRC | V2 ] Status
01 [79451882|5c3207eb] (0+0/1) No match
02 [080d80fc|f2c4a58f] (0+0/1) No match
03 [63bab692|272d47ed] (0+0/1) No match
04 [e03ada0b|570e1ab0] (0+0/1) No match
05 [5dce413f|f99fb31f] (0+0/1) No match
06 [683390eb|44741e24] (0+0/1) No match
07 [cf998289|d9138117] (0+0/1) No match
08 [37da24fc|58412944] (0+0/1) No match
09 [1953d14c|1145f63e] (0+0/1) No match
Offsetted by -1028:
01 [7db9f9d5] (1/1) Accurately ripped
02 [3cb7752d] (1/1) Accurately ripped
03 [aba59e61] (1/1) Accurately ripped
04 [5956eb15] (1/1) Accurately ripped
05 [67815413] (1/1) Accurately ripped
06 [957946de] (1/1) Accurately ripped
07 [69e73869] (1/1) Accurately ripped
08 [03e75024] (1/1) Accurately ripped
09 [bc57a1cb] (0/1) No match (V2 was not tested)
Track Peak [ CRC32 ] [W/O NULL] [ LOG ]
-- 99,0 [915147A6] [DB2449C8]
01 94,8 [B77CE1CE] [99848F0A] CRC32
02 75,4 [C8B403AE] [22EAC0B5] CRC32
03 88,2 [39F411A8] [459DC358] CRC32
04 86,6 [4CEE1690] [1848971B] CRC32
05 68,0 [7A84BE45] [DA0BCBB5] CRC32
06 99,0 [9EF9D955] [5CD6EB89] CRC32
07 83,2 [5DD5309D] [AE1C20E1] CRC32
08 75,1 [83A4D7C4] [C242A88C] CRC32
09 74,7 [E3926BD5] [15C37B65] CRC32
 
Об альбоме (сборнике)
While Eddie Palmieri fans have many collections of along "the best of" his music to choose from, this one called THE BEST OF EDDIE PALMIERI/LO MEJOR DE EDDIE PALMIERI is the first one.
I like the way the TICO label, Eddie's recording label at the time, insisted on titling it in both Spanish and English, as if to miss no segment of the popular band leader's fans, either the New York/USA crowd or the Puerto Rico/Latin America segment.
The release was 1974, so all of the music is from before that year. You get many of the Palmieri early classics, records that are still popular even 30 years later. MUNECA, LA MALANGA, LINDO YAMBU, VAMONOS PAL MONTE, AZUCAR,stand out. Most if not all of these were re-recorded again in later Palmieri albums years later. His fans could not get enough of them. But in this release you get the original jewels.
-- By Juan N. Montenegro
16:14
256
Нет комментариев. Ваш будет первым!