Поиск

(Latin Jazz) Cal Tjader - Sentimental Moods - 1995, FLAC (image+.cue), lossless

(Latin Jazz) Cal Tjader - Sentimental Moods - 1995, FLAC (image+.cue), lossless
Треклист:
Cal Tjader – Sentimental Moods
Жанр: Latin Jazz
Год издания: 1995
Издатель (лейбл): Fantasy Records
Номер по каталогу: FCD 24742-2
Аудиокодек: FLAC (*.flac)
Тип рипа: image+.cue
Битрейт аудио: lossless
Продолжительность: 72:52
Rip by intothe
Наличие сканов в содержимом раздачи: да
Треклист:
01. I Should Care (2:36)
02. Spring Is Here (2:39)
03. Time Was (2:59)
04. Star Eyes (3:17)
05. Stella By Starlight (3:17)
06. Alone Together (4:29)
07. Ode To A Beat Generation (2:20)
08. Skylark (2:40)
09. Martha (3:10)
10. Quizas, Quizas, Quizas (4:02)
11. Running Out (3:25)
12. Racoon Strait (2:29)
13. The Last Luff (3:42)
14. Sigmund Stern Groove (4:41)
15. Coit Tower (1:38)
16. Triple T Blues (6:03)
17. Union Square (4:23)
18. Skyline Waltz (3:47)
19. Viva Cepeda (3:44)
20. The Grant Avenue Suite (7:30)
 
 
Лог создания рипа
Exact Audio Copy V0.99 prebeta 5 from 4. May 2009
EAC extraction logfile from 17. January 2011, 14:43
Cal Tjader / Sentimental moods
Used drive : _NEC DVD_RW ND-3500AG Adapter: 0 ID: 0
Read mode : Secure
Utilize accurate stream : Yes
Defeat audio cache : Yes
Make use of C2 pointers : No
Read offset correction : 48
Overread into Lead-In and Lead-Out : No
Fill up missing offset samples with silence : Yes
Delete leading and trailing silent blocks : No
Null samples used in CRC calculations : Yes
Used interface : Native Win32 interface for Win NT & 2000
Used output format : User Defined Encoder
Selected bitrate : 768 kBit/s
Quality : High
Add ID3 tag : No
Command line compressor : C:\Program Files\Exact Audio Copy\FLAC\FLAC.EXE
Additional command line options : -6 -V -T "ARTIST=%a" -T "TITLE=%t" -T "ALBUM=%g" -T "DATE=%y" -T "TRACKNUMBER=%n" -T "GENRE=%m" -T "COMMENT=%e" %s -o %d
TOC of the extracted CD
Track | Start | Length | Start sector | End sector
---------------------------------------------------------
1 | 0:00.00 | 2:36.34 | 0 | 11733
2 | 2:36.34 | 2:39.13 | 11734 | 23671
3 | 5:15.47 | 2:59.23 | 23672 | 37119
4 | 8:14.70 | 3:17.37 | 37120 | 51931
5 | 11:32.32 | 3:16.38 | 51932 | 66669
6 | 14:48.70 | 4:29.35 | 66670 | 86879
7 | 19:18.30 | 2:20.02 | 86880 | 97381
8 | 21:38.32 | 2:39.45 | 97382 | 109351
9 | 24:18.02 | 3:10.25 | 109352 | 123626
10 | 27:28.27 | 4:01.53 | 123627 | 141754
11 | 31:30.05 | 3:25.32 | 141755 | 157161
12 | 34:55.37 | 2:28.50 | 157162 | 168311
13 | 37:24.12 | 3:41.38 | 168312 | 184924
14 | 41:05.50 | 4:40.65 | 184925 | 205989
15 | 45:46.40 | 1:38.32 | 205990 | 213371
16 | 47:24.72 | 6:03.00 | 213372 | 240596
17 | 53:27.72 | 4:23.20 | 240597 | 260341
18 | 57:51.17 | 3:46.70 | 260342 | 277361
19 | 61:38.12 | 3:43.68 | 277362 | 294154
20 | 65:22.05 | 7:30.17 | 294155 | 327921
Range status and errors
Selected range
Filename J:\eMusic\Rip\Cal Tjader - Sentimental moods.wav
Peak level 100.0 %
Range quality 99.9 %
Test CRC 7A33C510
Copy CRC 7A33C510
Copy OK
No errors occurred
AccurateRip summary
Track 1 cannot be verified as accurate (confidence 2) [3D0D565F], AccurateRip returned [B67A4187]
Track 2 cannot be verified as accurate (confidence 2) [8C308668], AccurateRip returned [9206EEC4]
Track 3 cannot be verified as accurate (confidence 2) [00E0FA6E], AccurateRip returned [921463F5]
Track 4 cannot be verified as accurate (confidence 2) [1A29F99C], AccurateRip returned [AD7121BA]
Track 5 cannot be verified as accurate (confidence 2) [3C6EC32D], AccurateRip returned [A53F9A46]
Track 6 cannot be verified as accurate (confidence 2) [7E15BFA6], AccurateRip returned [43BFEEDF]
Track 7 cannot be verified as accurate (confidence 2) [93EF2DC9], AccurateRip returned [B1038BC5]
Track 8 cannot be verified as accurate (confidence 2) [E3A6187E], AccurateRip returned [A8B231B4]
Track 9 cannot be verified as accurate (confidence 2) [B1588D5B], AccurateRip returned [E51C98DA]
Track 10 cannot be verified as accurate (confidence 2) [FCCA5A17], AccurateRip returned [0B2DD7A9]
Track 11 cannot be verified as accurate (confidence 2) [C020A217], AccurateRip returned [91E7DA03]
Track 12 cannot be verified as accurate (confidence 2) [C6C4CB2F], AccurateRip returned [CB330B1D]
Track 13 cannot be verified as accurate (confidence 2) [D0300F1C], AccurateRip returned [ED232086]
Track 14 cannot be verified as accurate (confidence 2) [6A6F903B], AccurateRip returned [C3EDC20D]
Track 15 cannot be verified as accurate (confidence 2) [1B0C79B2], AccurateRip returned [9E0E1F11]
Track 16 cannot be verified as accurate (confidence 2) [C0CB78B2], AccurateRip returned [569741AF]
Track 17 cannot be verified as accurate (confidence 2) [5B7B6403], AccurateRip returned [B45FE095]
Track 18 cannot be verified as accurate (confidence 2) [E9B9FC52], AccurateRip returned [4186F184]
Track 19 cannot be verified as accurate (confidence 2) [88D5E3FA], AccurateRip returned [366419EC]
Track 20 cannot be verified as accurate (confidence 2) [36A3FD0E], AccurateRip returned [DAE29822]
No tracks could be verified as accurate
You may have a different pressing from the one(s) in the database
End of status report
 
Содержание индексной карты (.CUE)
REM GENRE Jazz
REM DATE 1958
REM DISCID 21111414
REM COMMENT "ExactAudioCopy v0.99pb5"
PERFORMER "Cal Tjader"
TITLE "Sentimental Moods"
FILE "Cal Tjader - Sentimental Moods.flac" WAVE
TRACK 01 AUDIO
TITLE "I Should Care"
PERFORMER "Cal Tjader"
INDEX 01 00:00:00
TRACK 02 AUDIO
TITLE "Spring Is Here"
PERFORMER "Cal Tjader"
INDEX 00 02:34:37
INDEX 01 02:36:34
TRACK 03 AUDIO
TITLE "Time Was"
PERFORMER "Cal Tjader"
INDEX 00 05:12:30
INDEX 01 05:15:47
TRACK 04 AUDIO
TITLE "Star Eyes"
PERFORMER "Cal Tjader"
INDEX 00 08:12:30
INDEX 01 08:14:70
TRACK 05 AUDIO
TITLE "Stella By Starlight"
PERFORMER "Cal Tjader"
INDEX 00 11:29:27
INDEX 01 11:32:32
TRACK 06 AUDIO
TITLE "Alone Together"
PERFORMER "Cal Tjader"
INDEX 00 14:46:70
INDEX 01 14:48:70
TRACK 07 AUDIO
TITLE "Ode To A Beat Generation"
PERFORMER "Cal Tjader"
INDEX 00 19:15:20
INDEX 01 19:18:30
TRACK 08 AUDIO
TITLE "Skylark"
PERFORMER "Cal Tjader"
INDEX 00 21:36:42
INDEX 01 21:38:32
TRACK 09 AUDIO
TITLE "Martha"
PERFORMER "Cal Tjader"
INDEX 00 24:15:37
INDEX 01 24:18:02
TRACK 10 AUDIO
TITLE "Quizas, Quizas, Quizas"
PERFORMER "Cal Tjader"
INDEX 00 27:25:02
INDEX 01 27:28:27
TRACK 11 AUDIO
TITLE "Running Out"
PERFORMER "Cal Tjader"
INDEX 00 31:27:15
INDEX 01 31:30:05
TRACK 12 AUDIO
TITLE "Racoon Strait"
PERFORMER "Cal Tjader"
INDEX 00 34:52:60
INDEX 01 34:55:37
TRACK 13 AUDIO
TITLE "The Last Luff"
PERFORMER "Cal Tjader"
INDEX 00 37:21:30
INDEX 01 37:24:12
TRACK 14 AUDIO
TITLE "Sigmund Stern Groove"
PERFORMER "Cal Tjader"
INDEX 00 41:03:10
INDEX 01 41:05:50
TRACK 15 AUDIO
TITLE "Coit Tower"
PERFORMER "Cal Tjader"
INDEX 00 45:43:65
INDEX 01 45:46:40
TRACK 16 AUDIO
TITLE "Triple T Blues"
PERFORMER "Cal Tjader"
INDEX 00 47:22:50
INDEX 01 47:24:72
TRACK 17 AUDIO
TITLE "Union Square"
PERFORMER "Cal Tjader"
INDEX 00 53:25:20
INDEX 01 53:27:72
TRACK 18 AUDIO
TITLE "Skyline Waltz"
PERFORMER "Cal Tjader"
INDEX 00 57:49:15
INDEX 01 57:51:17
TRACK 19 AUDIO
TITLE "Viva Cepeda"
PERFORMER "Cal Tjader"
INDEX 00 61:35:20
INDEX 01 61:38:12
TRACK 20 AUDIO
TITLE "The Grant Avenue Suite"
PERFORMER "Cal Tjader"
INDEX 00 65:19:25
INDEX 01 65:22:05
10:54
316
Нет комментариев. Ваш будет первым!