Поиск

(Latin Jazz, Brazilian Jazz) [CD] Ivan Lins - Awa Yio - 1992, FLAC (image+.cue), lossless

(Latin Jazz, Brazilian Jazz) [CD] Ivan Lins - Awa Yio - 1992, FLAC (image+.cue), lossless
Треклист:
Ivan Lins / Awa Yio
Жанр: Latin Jazz, Brazilian Jazz
Носитель: CD
Страна-производитель диска (релиза): Бразилия
Год издания: 1992
Издатель (лейбл): Velas
Номер по каталогу: 11-V003
Страна исполнителя (группы): Бразилия
Аудиокодек: FLAC (*.flac)
Тип рипа: image+.cue
Битрейт аудио: lossless
Продолжительность: 00:47:41
Источник (релизер): maxradist
Наличие сканов в содержимом раздачи: да
Треклист:
01 Awa Yio
02 Clareou
03 Meu Pais
04 Cru-Cre Corroro
05 Agua Doce
06 Ai ai ai ai Ai
07 Leva y Traz
08 Que Quer de Mim
09 Turmalina
10 Pontos Cardeias
 
Лог создания рипа
Exact Audio Copy V1.0 beta 4 from 7. December 2014
Отчёт EAC об извлечении, выполненном 4. января 2015, 19:24
Ivan Lins / Awa Yio
Дисковод: HL-DT-STDVDRAM GSA-4167B Adapter: 1 ID: 0
Режим чтения : Достоверность
Использование точного потока : Да
Отключение кэша аудио : Да
Использование указателей C2 : Нет
Коррекция смещения при чтении : 667
Способность читать области Lead-in и Lead-out : Нет
Заполнение пропущенных сэмплов тишиной : Да
Удаление блоков с тишиной в начале и конце : Нет
При вычислениях CRC использовались нулевые сэмплы : Да
Интерфейс : Встроенный Win32-интерфейс для Win NT/2000
Выходной формат : Пользовательский кодировщик
Выбранный битрейт : 320 kBit/s
Качество : Высокий
Добавление ID3-тега : Нет
Утилита сжатия : C:\Program Files\Exact Audio Copy\Flac\flac.exe
Дополнительные параметры : -V -8 -T "Date=%year%" -T "Genre=%genre%" %source%
TOC извлечённого CD
Трек | Старт | Длительность | Начальный сектор | Конечный сектор
---------------------------------------------------------------------
1 | 0:00.33 | 4:54.12 | 33 | 22094
2 | 4:54.45 | 5:26.60 | 22095 | 46604
3 | 10:21.30 | 5:18.23 | 46605 | 70477
4 | 15:39.53 | 3:51.55 | 70478 | 87857
5 | 19:31.33 | 3:38.40 | 87858 | 104247
6 | 23:09.73 | 6:10.27 | 104248 | 132024
7 | 29:20.25 | 3:47.50 | 132025 | 149099
8 | 33:08.00 | 4:50.73 | 149100 | 170922
9 | 37:58.73 | 5:02.60 | 170923 | 193632
10 | 43:01.58 | 4:39.50 | 193633 | 214607
Характеристики диапазона извлечения и сообщения об ошибках
Выбранный диапазон
Имя файла C:\Program Files\Exact Audio Copy\Flac\Ivan Lins - Awa Yio.wav
Пиковый уровень 100.0 %
Скорость извлечения 6.5 X
Качество диапазона 100.0 %
CRC теста A3090FD5
CRC копии A3090FD5
Копирование... OK
Ошибок не произошло
AccurateRip: сводка
Трек 1 : извлечено точно (доверие 3) [FD20BE46] (AR v1)
Трек 2 : извлечено точно (доверие 4) [432F41FB] (AR v1)
Трек 3 : извлечено точно (доверие 4) [DC674CE8] (AR v1)
Трек 4 : извлечено точно (доверие 4) [9DCA18A7] (AR v1)
Трек 5 : извлечено точно (доверие 3) [E97E07CE] (AR v1)
Трек 6 : извлечено точно (доверие 4) [23A4ED7C] (AR v1)
Трек 7 : извлечено точно (доверие 4) [555958E8] (AR v1)
Трек 8 : извлечено точно (доверие 4) [BB306D44] (AR v1)
Трек 9 : извлечено точно (доверие 3) [9E2171A5] (AR v1)
Трек 10 : извлечено точно (доверие 2) [FC59F9F2] (AR v1)
Все треки извлечены точно
Конец отчёта
==== Контрольная сумма отчёта 96E47C82E912EBDE4990603A0BC0BDF4E5DBDBCD9F86A00C294E7AF8314B0822 ====
------------------------------------------------------------
Exact Audio Copy V1.0 beta 4 from 7. December 2014
Отчёт EAC об извлечении, выполненном 27. февраля 2016, 15:59
Ivan Lins / Awa Yio
Дисковод: HL-DT-STDVDRAM GSA-4167B Adapter: 1 ID: 0
Режим чтения : Достоверность
Использование точного потока : Да
Отключение кэша аудио : Да
Использование указателей C2 : Нет
Коррекция смещения при чтении : 667
Способность читать области Lead-in и Lead-out : Нет
Заполнение пропущенных сэмплов тишиной : Да
Удаление блоков с тишиной в начале и конце : Нет
При вычислениях CRC использовались нулевые сэмплы : Да
Интерфейс : Встроенный Win32-интерфейс для Win NT/2000
Выходной формат : Пользовательский кодировщик
Выбранный битрейт : 128 kBit/s
Качество : Высокий
Добавление ID3-тега : Нет
Утилита сжатия : C:\Program Files\Exact Audio Copy\FLAC\FLAC.EXE
Дополнительные параметры : -6 -V -T "ARTIST=%artist%" -T "TITLE=%title%" -T "ALBUM=%albumtitle%" -T "DATE=%year%" -T "TRACKNUMBER=%tracknr%" -T "GENRE=%genre%" -T "COMMENT=%comment%" -T "BAND=%albuminterpret%" -T "ALBUMARTIST=%albuminterpret%" -T "COMPOSER=%composer%" %haslyrics%--tag-from-file=LYRICS="%lyricsfile%"%haslyrics% -T "DISCNUMBER=%cdnumber%" -T "TOTALDISCS=%totalcds%" -T "TOTALTRACKS=%numtracks%" %hascover%--picture="%coverfile%"%hascover% %source% -o %dest%
TOC извлечённого CD
Трек | Старт | Длительность | Начальный сектор | Конечный сектор
---------------------------------------------------------------------
1 | 0:00.33 | 4:54.12 | 33 | 22094
2 | 4:54.45 | 5:26.60 | 22095 | 46604
3 | 10:21.30 | 5:18.23 | 46605 | 70477
4 | 15:39.53 | 3:51.55 | 70478 | 87857
5 | 19:31.33 | 3:38.40 | 87858 | 104247
6 | 23:09.73 | 6:10.27 | 104248 | 132024
7 | 29:20.25 | 3:47.50 | 132025 | 149099
8 | 33:08.00 | 4:50.73 | 149100 | 170922
9 | 37:58.73 | 5:02.60 | 170923 | 193632
10 | 43:01.58 | 4:39.50 | 193633 | 214607
Характеристики диапазона извлечения и сообщения об ошибках
Выбранный диапазон
Имя файла C:\Program Files\Exact Audio Copy\Flac\Ivan Lins - Awa Yio.wav
Пиковый уровень 100.0 %
Скорость извлечения 4.4 X
Качество диапазона 100.0 %
CRC теста A3090FD5
CRC копии A3090FD5
Копирование... OK
Ошибок не произошло
AccurateRip: сводка
Трек 1 : извлечено точно (доверие 3) [FD20BE46] (AR v1)
Трек 2 : извлечено точно (доверие 4) [432F41FB] (AR v1)
Трек 3 : извлечено точно (доверие 4) [DC674CE8] (AR v1)
Трек 4 : извлечено точно (доверие 4) [9DCA18A7] (AR v1)
Трек 5 : извлечено точно (доверие 3) [E97E07CE] (AR v1)
Трек 6 : извлечено точно (доверие 4) [23A4ED7C] (AR v1)
Трек 7 : извлечено точно (доверие 4) [555958E8] (AR v1)
Трек 8 : извлечено точно (доверие 4) [BB306D44] (AR v1)
Трек 9 : извлечено точно (доверие 3) [9E2171A5] (AR v1)
Трек 10 : извлечено точно (доверие 2) [FC59F9F2] (AR v1)
Все треки извлечены точно
Конец отчёта
==== Контрольная сумма отчёта 770D05BA1878B24F718692ACBAD850BC36C9EF422DDD693A67644F3CC92EB89A ====
 
Содержание индексной карты (.CUE)
REM GENRE Latin
REM DATE 1992
REM DISCID 870B2D0A
REM COMMENT "ExactAudioCopy v1.0b4"
PERFORMER "Ivan Lins"
TITLE "Awa Yio"
FILE "Ivan Lins - Awa Yio.flac" WAVE
TRACK 01 AUDIO
TITLE "Awa Yio"
PERFORMER "Ivan Lins"
INDEX 00 00:00:00
INDEX 01 00:00:33
TRACK 02 AUDIO
TITLE "Clareou"
PERFORMER "Ivan Lins"
INDEX 01 04:54:45
TRACK 03 AUDIO
TITLE "Meu Pais"
PERFORMER "Ivan Lins"
INDEX 01 10:21:30
TRACK 04 AUDIO
TITLE "Cru Cre Corroro"
PERFORMER "Ivan Lins"
INDEX 01 15:39:53
TRACK 05 AUDIO
TITLE "Agua Doce"
PERFORMER "Ivan Lins"
INDEX 01 19:31:33
TRACK 06 AUDIO
TITLE "Ai Ai Ai Ai Ai"
PERFORMER "Ivan Lins"
INDEX 01 23:09:73
TRACK 07 AUDIO
TITLE "Leva E Traz (Elis)"
PERFORMER "Ivan Lins"
INDEX 01 29:20:25
TRACK 08 AUDIO
TITLE "Que Quer De Mim"
PERFORMER "Ivan Lins"
INDEX 01 33:08:00
TRACK 09 AUDIO
TITLE "Turmalina"
PERFORMER "Ivan Lins"
INDEX 01 37:58:73
TRACK 10 AUDIO
TITLE "Pontos Cardeais"
PERFORMER "Ivan Lins"
INDEX 01 43:01:58
Доп. информация: Издание бразильское, отличается от американского. В частности, нет трека America, Brasil. Позже этот трек вышел в одноименном альбоме 2015 года, но в другой аранжировке.
20:54
264
Нет комментариев. Ваш будет первым!