Поиск

(Latin Jazz, Bossa Nova, Vocal Jazz) [CD] Clementine - Cafe Apres-Midi - 2001 (Japan Edition), FLAC (tracks+.cue), lossless

(Latin Jazz, Bossa Nova, Vocal Jazz) [CD] Clementine - Cafe Apres-Midi - 2001 (Japan Edition), FLAC (tracks+.cue), lossless
Clementine - Cafe Apres-Midi
Жанр: Latin Jazz, Bossa Nova, Vocal Jazz
Носитель: CD
Страна-производитель диска (релиза): Япония
Год издания: 2001
Издатель (лейбл): Sony Records
Номер по каталогу: SRCS 2503
Аудиокодек: FLAC (*.flac)
Тип рипа: tracks+.cue
Битрейт аудио: lossless
Продолжительность: 75:28
Источник (релизер): What.CD
Наличие сканов в содержимом раздачи: сетевые
Треклист:
01. A Petits Pas (3:39)
02. Saudades da Bahia (Boink) (4:29)
03. Aquarela do Brasil (3:37)
04. In the Stars (En las Estrellas) (4:34)
05. Catavento (1:58)
06. Chances Are (duet with Ben Sidran) (4:35)
07. Chega de Samba (4:27)
08. Down in Brazil (4:01)
09. Tristeza (Goodbye Sadness) (4:16)
10. Un Dia de Estos (6:01)
11. Caminhos Cruzados (4:26)
12. Rhum Coco (3:06)
13. Outra Vez (4:37)
14. A St. Tropez (4:05)
15. Les Voyages (3:01)
16. Aguas de Marco (duet with Marcos Valle) (4:55)
17. Un Homme et une Femme (A Man and a Woman) (Readymade One Man DJ Show Mix) (5:42)
18. Sabor a Mi (3:59)
 
Лог создания рипа
X Lossless Decoder version 20131102 (145.0)
XLD extraction logfile from 2014-01-27 22:43:42 -0500
Clementine / Cafe Apres-Midi
Used drive : OPTIARC DVD RW AD-5680H (revision 3AHB)
Media type : Pressed CD
Ripper mode : XLD Secure Ripper
Disable audio cache : OK for the drive with a cache less than 1375KiB
Make use of C2 pointers : NO
Read offset correction : 48
Max retry count : 100
Gap status : Analyzed, Appended
TOC of the extracted CD
Track | Start | Length | Start sector | End sector
---------------------------------------------------------
1 | 00:00:00 | 03:39:17 | 0 | 16441
2 | 03:39:17 | 04:29:30 | 16442 | 36646
3 | 08:08:47 | 03:37:13 | 36647 | 52934
4 | 11:45:60 | 04:34:37 | 52935 | 73521
5 | 16:20:22 | 01:58:18 | 73522 | 82389
6 | 18:18:40 | 04:35:35 | 82390 | 103049
7 | 22:54:00 | 04:27:22 | 103050 | 123096
8 | 27:21:22 | 04:00:38 | 123097 | 141134
9 | 31:21:60 | 04:16:12 | 141135 | 160346
10 | 35:37:72 | 06:01:30 | 160347 | 187451
11 | 41:39:27 | 04:26:20 | 187452 | 207421
12 | 46:05:47 | 03:06:33 | 207422 | 221404
13 | 49:12:05 | 04:37:17 | 221405 | 242196
14 | 53:49:22 | 04:05:28 | 242197 | 260599
15 | 57:54:50 | 03:01:35 | 260600 | 274209
16 | 60:56:10 | 04:55:07 | 274210 | 296341
17 | 65:51:17 | 05:41:40 | 296342 | 321956
18 | 71:32:57 | 03:58:68 | 321957 | 339874
AccurateRip Summary (DiscID: 002feda1-0283f913-0611b312)
Track 01 : OK (v1+v2, confidence 6/6)
Track 02 : OK (v1+v2, confidence 6/6)
Track 03 : OK (v1+v2, confidence 6/6)
Track 04 : OK (v1+v2, confidence 6/6)
Track 05 : OK (v1+v2, confidence 6/6)
Track 06 : OK (v1+v2, confidence 6/6)
Track 07 : OK (v1+v2, confidence 6/6)
Track 08 : OK (v1+v2, confidence 6/6)
Track 09 : OK (v1+v2, confidence 6/6)
Track 10 : OK (v1+v2, confidence 6/6)
Track 11 : OK (v1+v2, confidence 6/6)
Track 12 : OK (v1+v2, confidence 6/6)
Track 13 : OK (v1+v2, confidence 6/6)
Track 14 : OK (v1+v2, confidence 6/6)
Track 15 : OK (v1+v2, confidence 6/6)
Track 16 : OK (v1+v2, confidence 6/6)
Track 17 : OK (v1+v2, confidence 6/6)
Track 18 : OK (v1+v2, confidence 6/6)
->All tracks accurately ripped.
All Tracks
Album gain : -5.23 dB
Peak : 1.000000
Statistics
Read error : 0
Jitter error (maybe fixed) : 0
Retry sector count : 0
Damaged sector count : 0
Track 01
Filename : /Users/maxrubell/Desktop/Seeding What.CD/Cafe Apres-Midi/Clementine - Cafe Apres-Midi (2001) [FLAC]/01 A Petits Pas.flac
Pre-gap length : 00:02:00
Track gain : -4.00 dB
Peak : 1.000000
CRC32 hash (test run) : 701869D6
CRC32 hash : 701869D6
CRC32 hash (skip zero) : C8CBD08D
AccurateRip v1 signature : 8E99AECC
AccurateRip v2 signature : C5F249E6
->Accurately ripped (v1+v2, confidence 2+4/6)
Statistics
Read error : 0
Jitter error (maybe fixed) : 0
Retry sector count : 0
Damaged sector count : 0
Track 02
Filename : /Users/maxrubell/Desktop/Seeding What.CD/Cafe Apres-Midi/Clementine - Cafe Apres-Midi (2001) [FLAC]/02 Saudades Da Bahia.flac
Track gain : -6.72 dB
Peak : 1.000000
CRC32 hash (test run) : 3AE22314
CRC32 hash : 3AE22314
CRC32 hash (skip zero) : F451683E
AccurateRip v1 signature : F0CB72EC
AccurateRip v2 signature : 7A2AF0F6
->Accurately ripped (v1+v2, confidence 2+4/6)
Statistics
Read error : 0
Jitter error (maybe fixed) : 0
Retry sector count : 0
Damaged sector count : 0
Track 03
Filename : /Users/maxrubell/Desktop/Seeding What.CD/Cafe Apres-Midi/Clementine - Cafe Apres-Midi (2001) [FLAC]/03 Aquarela Do Brasil.flac
Track gain : -6.53 dB
Peak : 1.000000
CRC32 hash (test run) : 2A91A794
CRC32 hash : 2A91A794
CRC32 hash (skip zero) : 4AF116A0
AccurateRip v1 signature : 43E7F391
AccurateRip v2 signature : A9CC538D
->Accurately ripped (v1+v2, confidence 2+4/6)
Statistics
Read error : 0
Jitter error (maybe fixed) : 0
Retry sector count : 0
Damaged sector count : 0
Track 04
Filename : /Users/maxrubell/Desktop/Seeding What.CD/Cafe Apres-Midi/Clementine - Cafe Apres-Midi (2001) [FLAC]/04 In The Stars (En Las Estrellas).flac
Track gain : -3.76 dB
Peak : 0.988831
CRC32 hash (test run) : 844B7B9A
CRC32 hash : 844B7B9A
CRC32 hash (skip zero) : 9BA51E7C
AccurateRip v1 signature : 334DBDF2
AccurateRip v2 signature : E7C14F0E
->Accurately ripped (v1+v2, confidence 2+4/6)
Statistics
Read error : 0
Jitter error (maybe fixed) : 0
Retry sector count : 0
Damaged sector count : 0
Track 05
Filename : /Users/maxrubell/Desktop/Seeding What.CD/Cafe Apres-Midi/Clementine - Cafe Apres-Midi (2001) [FLAC]/05 Catavento.flac
Track gain : -5.31 dB
Peak : 1.000000
CRC32 hash (test run) : 14EBA6C3
CRC32 hash : 14EBA6C3
CRC32 hash (skip zero) : 18B63FC0
AccurateRip v1 signature : 0980C3D3
AccurateRip v2 signature : AF52421C
->Accurately ripped (v1+v2, confidence 2+4/6)
Statistics
Read error : 0
Jitter error (maybe fixed) : 0
Retry sector count : 0
Damaged sector count : 0
Track 06
Filename : /Users/maxrubell/Desktop/Seeding What.CD/Cafe Apres-Midi/Clementine - Cafe Apres-Midi (2001) [FLAC]/06 Chances Are (feat. Ben Sidran).flac
Track gain : -4.77 dB
Peak : 1.000000
CRC32 hash (test run) : 9F68EF0D
CRC32 hash : 9F68EF0D
CRC32 hash (skip zero) : 3B127CF5
AccurateRip v1 signature : AD6762B1
AccurateRip v2 signature : A17AF9BE
->Accurately ripped (v1+v2, confidence 2+4/6)
Statistics
Read error : 0
Jitter error (maybe fixed) : 0
Retry sector count : 0
Damaged sector count : 0
Track 07
Filename : /Users/maxrubell/Desktop/Seeding What.CD/Cafe Apres-Midi/Clementine - Cafe Apres-Midi (2001) [FLAC]/07 Chega De Samba.flac
Track gain : -4.78 dB
Peak : 1.000000
CRC32 hash (test run) : 3626B4A1
CRC32 hash : 3626B4A1
CRC32 hash (skip zero) : 4BB40B16
AccurateRip v1 signature : 51B1A9B0
AccurateRip v2 signature : CFF3F473
->Accurately ripped (v1+v2, confidence 2+4/6)
Statistics
Read error : 0
Jitter error (maybe fixed) : 0
Retry sector count : 0
Damaged sector count : 0
Track 08
Filename : /Users/maxrubell/Desktop/Seeding What.CD/Cafe Apres-Midi/Clementine - Cafe Apres-Midi (2001) [FLAC]/08 Down In Brazil.flac
Track gain : -1.90 dB
Peak : 0.874268
CRC32 hash (test run) : 86934670
CRC32 hash : 86934670
CRC32 hash (skip zero) : 4BFBFBA6
AccurateRip v1 signature : 18967BA9
AccurateRip v2 signature : F6804917
->Accurately ripped (v1+v2, confidence 2+4/6)
Statistics
Read error : 0
Jitter error (maybe fixed) : 0
Retry sector count : 0
Damaged sector count : 0
Track 09
Filename : /Users/maxrubell/Desktop/Seeding What.CD/Cafe Apres-Midi/Clementine - Cafe Apres-Midi (2001) [FLAC]/09 Tristeza (Goodbye Sadness).flac
Track gain : -6.65 dB
Peak : 1.000000
CRC32 hash (test run) : A65D0762
CRC32 hash : A65D0762
CRC32 hash (skip zero) : 1E5AFD8A
AccurateRip v1 signature : 4988C3B4
AccurateRip v2 signature : 47574A28
->Accurately ripped (v1+v2, confidence 2+4/6)
Statistics
Read error : 0
Jitter error (maybe fixed) : 0
Retry sector count : 0
Damaged sector count : 0
Track 10
Filename : /Users/maxrubell/Desktop/Seeding What.CD/Cafe Apres-Midi/Clementine - Cafe Apres-Midi (2001) [FLAC]/10 Un Dia De Estos.flac
Track gain : -5.99 dB
Peak : 1.000000
CRC32 hash (test run) : 6CE9BECA
CRC32 hash : 6CE9BECA
CRC32 hash (skip zero) : 599BC3BB
AccurateRip v1 signature : 04B8E52D
AccurateRip v2 signature : 5EFEE84C
->Accurately ripped (v1+v2, confidence 2+4/6)
Statistics
Read error : 0
Jitter error (maybe fixed) : 0
Retry sector count : 0
Damaged sector count : 0
Track 11
Filename : /Users/maxrubell/Desktop/Seeding What.CD/Cafe Apres-Midi/Clementine - Cafe Apres-Midi (2001) [FLAC]/11 Caminhos Cruzados.flac
Track gain : -4.66 dB
Peak : 0.988831
CRC32 hash (test run) : DED11D16
CRC32 hash : DED11D16
CRC32 hash (skip zero) : 9CE282D7
AccurateRip v1 signature : 811577BC
AccurateRip v2 signature : EF7DFC66
->Accurately ripped (v1+v2, confidence 2+4/6)
Statistics
Read error : 0
Jitter error (maybe fixed) : 0
Retry sector count : 0
Damaged sector count : 0
Track 12
Filename : /Users/maxrubell/Desktop/Seeding What.CD/Cafe Apres-Midi/Clementine - Cafe Apres-Midi (2001) [FLAC]/12 Rhum Coco.flac
Track gain : -0.58 dB
Peak : 0.846954
CRC32 hash (test run) : 2C184C7E
CRC32 hash : 2C184C7E
CRC32 hash (skip zero) : 1690C866
AccurateRip v1 signature : 156D4D6B
AccurateRip v2 signature : CF3E2079
->Accurately ripped (v1+v2, confidence 2+4/6)
Statistics
Read error : 0
Jitter error (maybe fixed) : 0
Retry sector count : 0
Damaged sector count : 0
Track 13
Filename : /Users/maxrubell/Desktop/Seeding What.CD/Cafe Apres-Midi/Clementine - Cafe Apres-Midi (2001) [FLAC]/13 Outra Vaz.flac
Track gain : -4.34 dB
Peak : 1.000000
CRC32 hash (test run) : 6B8E9DC8
CRC32 hash : 6B8E9DC8
CRC32 hash (skip zero) : F225C2ED
AccurateRip v1 signature : 510C8FA3
AccurateRip v2 signature : 857A75A1
->Accurately ripped (v1+v2, confidence 2+4/6)
Statistics
Read error : 0
Jitter error (maybe fixed) : 0
Retry sector count : 0
Damaged sector count : 0
Track 14
Filename : /Users/maxrubell/Desktop/Seeding What.CD/Cafe Apres-Midi/Clementine - Cafe Apres-Midi (2001) [FLAC]/14 A St. Tropez.flac
Track gain : -4.14 dB
Peak : 1.000000
CRC32 hash (test run) : 9A437C75
CRC32 hash : 9A437C75
CRC32 hash (skip zero) : D7FA6B1E
AccurateRip v1 signature : E97D781F
AccurateRip v2 signature : 8D4C9991
->Accurately ripped (v1+v2, confidence 2+4/6)
Statistics
Read error : 0
Jitter error (maybe fixed) : 0
Retry sector count : 0
Damaged sector count : 0
Track 15
Filename : /Users/maxrubell/Desktop/Seeding What.CD/Cafe Apres-Midi/Clementine - Cafe Apres-Midi (2001) [FLAC]/15 Les Voyages.flac
Track gain : -4.23 dB
Peak : 1.000000
CRC32 hash (test run) : F27C9220
CRC32 hash : F27C9220
CRC32 hash (skip zero) : 0B287A26
AccurateRip v1 signature : 6B5AB1EE
AccurateRip v2 signature : 3ED646BD
->Accurately ripped (v1+v2, confidence 2+4/6)
Statistics
Read error : 0
Jitter error (maybe fixed) : 0
Retry sector count : 0
Damaged sector count : 0
Track 16
Filename : /Users/maxrubell/Desktop/Seeding What.CD/Cafe Apres-Midi/Clementine - Cafe Apres-Midi (2001) [FLAC]/16 Aguas De Marco (feat. Marcos Valle).flac
Track gain : -3.85 dB
Peak : 1.000000
CRC32 hash (test run) : 71B6865A
CRC32 hash : 71B6865A
CRC32 hash (skip zero) : 0E675D10
AccurateRip v1 signature : 4DCCD3F4
AccurateRip v2 signature : F402F45A
->Accurately ripped (v1+v2, confidence 2+4/6)
Statistics
Read error : 0
Jitter error (maybe fixed) : 0
Retry sector count : 0
Damaged sector count : 0
Track 17
Filename : /Users/maxrubell/Desktop/Seeding What.CD/Cafe Apres-Midi/Clementine - Cafe Apres-Midi (2001) [FLAC]/17 Un Homme Et Une Femme.flac
Track gain : -5.21 dB
Peak : 1.000000
CRC32 hash (test run) : AB893C36
CRC32 hash : AB893C36
CRC32 hash (skip zero) : 6D00CD52
AccurateRip v1 signature : 90FEA9D8
AccurateRip v2 signature : E0FA0D33
->Accurately ripped (v1+v2, confidence 2+4/6)
Statistics
Read error : 0
Jitter error (maybe fixed) : 0
Retry sector count : 0
Damaged sector count : 0
Track 18
Filename : /Users/maxrubell/Desktop/Seeding What.CD/Cafe Apres-Midi/Clementine - Cafe Apres-Midi (2001) [FLAC]/18 Sabor A Mi.flac
Track gain : -5.00 dB
Peak : 0.988831
CRC32 hash (test run) : 8F6A1F2C
CRC32 hash : 8F6A1F2C
CRC32 hash (skip zero) : 9F6734B6
AccurateRip v1 signature : A4EC4CBF
AccurateRip v2 signature : 6D957BE7
->Accurately ripped (v1+v2, confidence 2+4/6)
Statistics
Read error : 0
Jitter error (maybe fixed) : 0
Retry sector count : 0
Damaged sector count : 0
No errors occurred
End of status report
-----BEGIN XLD SIGNATURE-----
rA2oL1QY66fF1idf.sqiJFPU9sFTpavT9CLzXiKNgchVOCvT4KIQo5O0q40zDqB.xI_uPaXlOTcd.YmkqkLYVOeKJs7Htcke0PnOt7S
-----END XLD SIGNATURE-----
 
Содержание индексной карты (.CUE)
TITLE "Cafe Apres-Midi"
PERFORMER "Clementine"
REM GENRE "Jazz"
REM DATE "2001"
REM DISCID 0611B312
REM REPLAYGAIN_ALBUM_GAIN -5.23 dB
REM REPLAYGAIN_ALBUM_PEAK 1.000000
FILE "01 - A Petits Pas.flac" WAVE
TRACK 01 AUDIO
TITLE "A Petits Pas"
ISRC JPSR00103001
REM REPLAYGAIN_TRACK_GAIN -4.00 dB
REM REPLAYGAIN_TRACK_PEAK 1.000000
INDEX 01 00:00:00
FILE "02 - Saudades da Bahia (Boink).flac" WAVE
TRACK 02 AUDIO
TITLE "Saudades da Bahia (Boink)"
ISRC JPSR00103002
REM REPLAYGAIN_TRACK_GAIN -6.72 dB
REM REPLAYGAIN_TRACK_PEAK 1.000000
INDEX 01 00:00:00
FILE "03 - Aquarela do Brasil.flac" WAVE
TRACK 03 AUDIO
TITLE "Aquarela do Brasil"
ISRC JPSR00005686
REM REPLAYGAIN_TRACK_GAIN -6.53 dB
REM REPLAYGAIN_TRACK_PEAK 1.000000
INDEX 01 00:00:00
FILE "04 - In the Stars (En las Estrellas).flac" WAVE
TRACK 04 AUDIO
TITLE "In the Stars (En las Estrellas)"
REM REPLAYGAIN_TRACK_GAIN -3.76 dB
REM REPLAYGAIN_TRACK_PEAK 0.988831
INDEX 01 00:00:00
FILE "05 - Catavento.flac" WAVE
TRACK 05 AUDIO
TITLE "Catavento"
ISRC JPSR00005681
REM REPLAYGAIN_TRACK_GAIN -5.31 dB
REM REPLAYGAIN_TRACK_PEAK 1.000000
INDEX 01 00:00:00
FILE "06 - Chances Are (duet with Ben Sidran).flac" WAVE
TRACK 06 AUDIO
TITLE "Chances Are (duet with Ben Sidran)"
REM REPLAYGAIN_TRACK_GAIN -4.77 dB
REM REPLAYGAIN_TRACK_PEAK 1.000000
INDEX 01 00:00:00
FILE "07 - Chega de Samba.flac" WAVE
TRACK 07 AUDIO
TITLE "Chega de Samba"
ISRC JPSR09309710
REM REPLAYGAIN_TRACK_GAIN -4.78 dB
REM REPLAYGAIN_TRACK_PEAK 1.000000
INDEX 01 00:00:00
FILE "08 - Down in Brazil.flac" WAVE
TRACK 08 AUDIO
TITLE "Down in Brazil"
REM REPLAYGAIN_TRACK_GAIN -1.90 dB
REM REPLAYGAIN_TRACK_PEAK 0.874268
INDEX 01 00:00:00
FILE "09 - Tristeza (Goodbye Sadness).flac" WAVE
TRACK 09 AUDIO
TITLE "Tristeza (Goodbye Sadness)"
ISRC JPSR00005684
REM REPLAYGAIN_TRACK_GAIN -6.65 dB
REM REPLAYGAIN_TRACK_PEAK 1.000000
INDEX 01 00:00:00
FILE "10 - Un Dia de Estos.flac" WAVE
TRACK 10 AUDIO
TITLE "Un Dia de Estos"
ISRC JPSR09811367
REM REPLAYGAIN_TRACK_GAIN -5.99 dB
REM REPLAYGAIN_TRACK_PEAK 1.000000
INDEX 01 00:00:00
FILE "11 - Caminhos Cruzados.flac" WAVE
TRACK 11 AUDIO
TITLE "Caminhos Cruzados"
REM REPLAYGAIN_TRACK_GAIN -4.66 dB
REM REPLAYGAIN_TRACK_PEAK 0.988831
INDEX 01 00:00:00
FILE "12 - Rhum Coco.flac" WAVE
TRACK 12 AUDIO
TITLE "Rhum Coco"
REM REPLAYGAIN_TRACK_GAIN -0.58 dB
REM REPLAYGAIN_TRACK_PEAK 0.846954
INDEX 01 00:00:00
FILE "13 - Outra Vez.flac" WAVE
TRACK 13 AUDIO
TITLE "Outra Vez"
REM REPLAYGAIN_TRACK_GAIN -4.34 dB
REM REPLAYGAIN_TRACK_PEAK 1.000000
INDEX 01 00:00:00
FILE "14 - A St. Tropez.flac" WAVE
TRACK 14 AUDIO
TITLE "A St. Tropez"
ISRC JPSR09269359
REM REPLAYGAIN_TRACK_GAIN -4.14 dB
REM REPLAYGAIN_TRACK_PEAK 1.000000
INDEX 01 00:00:00
FILE "15 - Les Voyages.flac" WAVE
TRACK 15 AUDIO
TITLE "Les Voyages"
ISRC JPSR00005683
REM REPLAYGAIN_TRACK_GAIN -4.23 dB
REM REPLAYGAIN_TRACK_PEAK 1.000000
INDEX 01 00:00:00
FILE "16 - Aguas de Marco (duet with Marcos Valle).flac" WAVE
TRACK 16 AUDIO
TITLE "Aguas de Marco (duet with Marcos Valle)"
ISRC JPSR00005693
REM REPLAYGAIN_TRACK_GAIN -3.85 dB
REM REPLAYGAIN_TRACK_PEAK 1.000000
INDEX 01 00:00:00
FILE "17 - Un Homme et une Femme (A Man and a Woman) (Readymade One Man DJ Show Mix).flac" WAVE
TRACK 17 AUDIO
TITLE "Un Homme et une Femme (A Man and a Woman) (Readymade One Man DJ Show Mix)"
ISRC JPSR09602210
REM REPLAYGAIN_TRACK_GAIN -5.21 dB
REM REPLAYGAIN_TRACK_PEAK 1.000000
INDEX 01 00:00:00
FILE "18 - Sabor a Mi.flac" WAVE
TRACK 18 AUDIO
TITLE "Sabor a Mi"
REM REPLAYGAIN_TRACK_GAIN -5.00 dB
REM REPLAYGAIN_TRACK_PEAK 0.988831
INDEX 01 00:00:00
 
Отчет CUETools
[CUETools log; Date: 09.06.2017 1:01:19; Version: 2.1.5]
[CTDB TOCID: is79c7k8omCYPMt1..MiBfMa_7M-] found.
Track | CTDB Status
1 | (25/25) Accurately ripped
2 | (25/25) Accurately ripped
3 | (25/25) Accurately ripped
4 | (25/25) Accurately ripped
5 | (25/25) Accurately ripped
6 | (25/25) Accurately ripped
7 | (25/25) Accurately ripped
8 | (24/25) Accurately ripped
9 | (25/25) Accurately ripped
10 | (25/25) Accurately ripped
11 | (24/25) Accurately ripped
12 | (24/25) Accurately ripped
13 | (24/25) Accurately ripped
14 | (24/25) Accurately ripped
15 | (25/25) Accurately ripped
16 | (25/25) Accurately ripped
17 | (24/25) Accurately ripped
18 | (23/25) Accurately ripped
[AccurateRip ID: 002feda1-0283f913-0611b312] found.
Track [ CRC | V2 ] Status
01 [8e99aecc|c5f249e6] (2+7/9) Accurately ripped
02 [f0cb72ec|7a2af0f6] (2+7/9) Accurately ripped
03 [43e7f391|a9cc538d] (2+7/9) Accurately ripped
04 [334dbdf2|e7c14f0e] (2+7/9) Accurately ripped
05 [0980c3d3|af52421c] (2+7/9) Accurately ripped
06 [ad6762b1|a17af9be] (2+7/9) Accurately ripped
07 [51b1a9b0|cff3f473] (2+7/9) Accurately ripped
08 [18967ba9|f6804917] (2+7/9) Accurately ripped
09 [4988c3b4|47574a28] (2+7/9) Accurately ripped
10 [04b8e52d|5efee84c] (2+7/9) Accurately ripped
11 [811577bc|ef7dfc66] (2+7/9) Accurately ripped
12 [156d4d6b|cf3e2079] (2+7/9) Accurately ripped
13 [510c8fa3|857a75a1] (2+7/9) Accurately ripped
14 [e97d781f|8d4c9991] (2+7/9) Accurately ripped
15 [6b5ab1ee|3ed646bd] (2+7/9) Accurately ripped
16 [4dccd3f4|f402f45a] (2+7/9) Accurately ripped
17 [90fea9d8|e0fa0d33] (2+7/9) Accurately ripped
18 [a4ec4cbf|6d957be7] (2+7/9) Accurately ripped
Track Peak [ CRC32 ] [W/O NULL]
-- 100,0 [7A9847AE] [A726DCED]
01 100,0 [701869D6] [C8CBD08D]
02 100,0 [3AE22314] [F451683E]
03 100,0 [2A91A794] [4AF116A0]
04 98,8 [844B7B9A] [9BA51E7C]
05 100,0 [14EBA6C3] [18B63FC0]
06 100,0 [9F68EF0D] [3B127CF5]
07 100,0 [3626B4A1] [4BB40B16]
08 87,4 [86934670] [4BFBFBA6]
09 100,0 [A65D0762] [1E5AFD8A]
10 100,0 [6CE9BECA] [599BC3BB]
11 98,8 [DED11D16] [9CE282D7]
12 84,6 [2C184C7E] [1690C866]
13 100,0 [6B8E9DC8] [F225C2ED]
14 100,0 [9A437C75] [D7FA6B1E]
15 100,0 [F27C9220] [0B287A26]
16 100,0 [71B6865A] [0E675D10]
17 100,0 [AB893C36] [6D00CD52]
18 98,8 [8F6A1F2C] [9F6734B6]
01:08
316
Нет комментариев. Ваш будет первым!