Поиск

(Latin Jazz, Bossa Nova) VA - Босса-Нова (приложение к журналу Stereo & Video, сентябрь 2004) - 2004, FLAC (image+.cue), lossless

(Latin Jazz, Bossa Nova) VA - Босса-Нова (приложение к журналу Stereo & Video, сентябрь 2004) - 2004, FLAC (image+.cue), lossless
Треклист:
Various Artists - Босса-Нова (приложение к журналу Stereo & Video, сентябрь 2004)
Жанр: Latin Jazz, Bossa Nova
Год выпуска диска: 2004
Страна: Brazil
Производитель диска: Росмэн-Аудио
Аудио кодек: FLAC
Тип рипа: image+.cue
Битрейт аудио: lossless
Продолжительность: 01:05:03
Трэклист:
01- Deve Ser Amor (Vinicius De Moraes – R. Baden Powell)
02- Batukada (Luiz Bonfa)
03- Samba De Minha Terra (Dorival Caymmi)
04- Bim Bom (Joao Gilberto)
05- E Luxo So (Ary Barroso – Luis Peixoto)
06- Baia (Barroso)
07- Samba Triste (Billy Blanco – Baden Powell)
08- Desafinado (Antonio Carlos Jobim – Newton Mendonca)
09- Corcovado (Jobim – Gene Lees)
10- Garota De Ipanema (Jobim – De Moraes – N. Gimbel)
11- Clouds (Mauricio Einhorn – Durval Ferreira)
12- Samba De Uma Nota So (Jobim – Mendonca)
13- O Pato (Jayme Silva – Neuza Teixeira)
14- Meditation (Jobim – Gimbel – Mendonca)
15- Inqietacao (Barroso)
Отчет:
 
Exact Audio Copy
Exact Audio Copy V0.99 prebeta 4 from 23. January 2008
Отчёт EAC об извлечении, выполненном 28. марта 2009, 14:32
VA / Босса Нова
Дисковод: Optiarc DVD RW AD-7201S Adapter: 4 ID: 2
Режим чтения : Достоверность
Использование точного потока : Да
Отключение кэша аудио : Да
Использование указателей C2 : Нет
Коррекция смещения при чтении : 48
Способность читать области Lead-in и Lead-out : Нет
Заполнение пропущенных сэмплов тишиной : Да
Удаление блоков с тишиной в начале и конце : Нет
При вычислениях CRC использовались нулевые сэмплы : Да
Интерфейс : Установленный внешний ASPI-интерфейс
Выходной формат : Пользовательский кодировщик
Выбранный битрейт : 768 kBit/s
Качество : Высокий
Добавление ID3-тэга : Нет
Утилита сжатия : C:\Program Files\Exact Audio Copy\FLAC\FLAC.EXE
Дополнительные параметры : -6 -V -T "ARTIST=%a" -T "TITLE=%t" -T "ALBUM=%g" -T "DATE=%y" -T "TRACKNUMBER=%n" -T "GENRE=%m" -T "COMMENT=%e" %s -o %d
TOC извлечённого CD
Трек | Старт | Длительность | Начальный сектор | Конечный сектор
---------------------------------------------------------------------
1 | 0:00.00 | 3:53.51 | 0 | 17525
2 | 3:53.51 | 3:08.34 | 17526 | 31659
3 | 7:02.10 | 2:55.56 | 31660 | 44840
4 | 9:57.66 | 1:58.60 | 44841 | 53750
5 | 11:56.51 | 3:42.58 | 53751 | 70458
6 | 15:39.34 | 6:44.32 | 70459 | 100790
7 | 22:23.66 | 4:48.38 | 100791 | 122428
8 | 27:12.29 | 4:12.61 | 122429 | 141389
9 | 31:25.15 | 4:16.42 | 141390 | 160631
10 | 35:41.57 | 6:19.09 | 160632 | 189065
11 | 42:00.66 | 4:50.70 | 189066 | 210885
12 | 46:51.61 | 5:55.24 | 210886 | 237534
13 | 52:47.10 | 4:06.48 | 237535 | 256032
14 | 56:53.58 | 5:05.43 | 256033 | 278950
15 | 61:59.26 | 3:04.47 | 278951 | 292797
Характеристики диапазона извлечения и сообщения об ошибках
Выбранный диапазон
Имя файла D:\Z Seeds\VA - Босса-Нова (приложение к журналу Stereo & Video, сентябрь 2004)\Music\VA - Босса Нова.wav
Пиковый уровень 99.4 %
Качество диапазона 100.0 %
CRC копии 678505EB
Копирование... OK
Ошибок не произошло
Конец отчёта
 
Tau Analyzer

Доп. информация:
06:29
356
Нет комментариев. Ваш будет первым!