Поиск

(Latin Jazz, Bossa Nova) Lisa Ono — NaNa (NaNã) — 1990, FLAC (tracks+.cue), lossless

(Latin Jazz, Bossa Nova) Lisa Ono — NaNa (NaNã) — 1990, FLAC (tracks+.cue), lossless
Треклист:
Lisa Ono — NaNã
Жанр: Latin Jazz, Bossa Nova
Год выпуска диска: 1990
Label: Midi
Аудио кодек: FLAC
Тип рипа: tracks+.cue
Продолжительность: 45:20
Трeклист:
01. Besteira (4:51)
02. Rio De Janeiro (4:12)
03. Morcega (2:41)
04. Maira (3:59)
05. Sereno (4:51)
06. Passeio Nas Estrelas (3:40)
07. Litoral De Sol (4:22)
08. Paper Doll (3:39)
09. Guaruja (3:18)
10. A Abelha E O Zangao (2:50)
11. Choro (3:03)
12. Canto Para Nana (3:54)
 
   Источник:
 
 
.log
Exact Audio Copy V0.99 prebeta 4 from 23. January 2008
EAC extraction logfile from 12. May 2009, 4:55
Lisa Ono / Nana
Used drive : TSSTcorpCD/DVDW TS-H653L Adapter: 0 ID: 2
Read mode : Secure
Utilize accurate stream : Yes
Defeat audio cache : Yes
Make use of C2 pointers : No
Read offset correction : 6
Overread into Lead-In and Lead-Out : No
Fill up missing offset samples with silence : Yes
Delete leading and trailing silent blocks : No
Null samples used in CRC calculations : Yes
Used interface : Native Win32 interface for Win NT & 2000
Gap handling : Appended to previous track
Used output format : User Defined Encoder
Selected bitrate : 128 kBit/s
Quality : High
Add ID3 tag : No
Command line compressor : C:\Program Files\FLAC\flac.exe
Additional command line options : -V -8 -T "artist=%a" -T "title=%t" -T "album=%g" -T "date=%y" -T "tracknumber=%n" -T "genre=%m" %s
TOC of the extracted CD
Track | Start | Length | Start sector | End sector
---------------------------------------------------------
1 | 0:00.00 | 4:51.35 | 0 | 21859
2 | 4:51.35 | 4:12.30 | 21860 | 40789
3 | 9:03.65 | 2:41.10 | 40790 | 52874
4 | 11:45.00 | 3:58.60 | 52875 | 70784
5 | 15:43.60 | 4:50.47 | 70785 | 92581
6 | 20:34.32 | 3:40.03 | 92582 | 109084
7 | 24:14.35 | 4:21.67 | 109085 | 128726
8 | 28:36.27 | 3:38.58 | 128727 | 145134
9 | 32:15.10 | 3:17.57 | 145135 | 159966
10 | 35:32.67 | 2:50.28 | 159967 | 172744
11 | 38:23.20 | 3:03.07 | 172745 | 186476
12 | 41:26.27 | 3:53.70 | 186477 | 204021
Track 1
Filename D:\All things Kebin II\Downloads\__EAC LOGS__\Lisa Ono - Nana\01 - Besteira.wav
Pre-gap length 0:00:02.00
Peak level 99.9 %
Track quality 100.0 %
Test CRC FE8AA742
Copy CRC FE8AA742
Track not present in AccurateRip database
Copy OK
Track 2
Filename D:\All things Kebin II\Downloads\__EAC LOGS__\Lisa Ono - Nana\02 - Rio de Janeiro.wav
Pre-gap length 0:00:06.70
Peak level 89.9 %
Track quality 100.0 %
Test CRC 8849A790
Copy CRC 8849A790
Track not present in AccurateRip database
Copy OK
Track 3
Filename D:\All things Kebin II\Downloads\__EAC LOGS__\Lisa Ono - Nana\03 - Morcega.wav
Pre-gap length 0:00:04.30
Peak level 100.0 %
Track quality 100.0 %
Test CRC AAB45948
Copy CRC AAB45948
Track not present in AccurateRip database
Copy OK
Track 4
Filename D:\All things Kebin II\Downloads\__EAC LOGS__\Lisa Ono - Nana\04 - Maira.wav
Pre-gap length 0:00:05.10
Peak level 84.0 %
Track quality 100.0 %
Test CRC A1727207
Copy CRC A1727207
Track not present in AccurateRip database
Copy OK
Track 5
Filename D:\All things Kebin II\Downloads\__EAC LOGS__\Lisa Ono - Nana\05 - Sereno.wav
Pre-gap length 0:00:04.20
Peak level 95.4 %
Track quality 100.0 %
Test CRC C3FE07CD
Copy CRC C3FE07CD
Track not present in AccurateRip database
Copy OK
Track 6
Filename D:\All things Kebin II\Downloads\__EAC LOGS__\Lisa Ono - Nana\06 - Passeio nas estrelas.wav
Pre-gap length 0:00:03.96
Peak level 98.1 %
Track quality 100.0 %
Test CRC BB323278
Copy CRC BB323278
Track not present in AccurateRip database
Copy OK
Track 7
Filename D:\All things Kebin II\Downloads\__EAC LOGS__\Lisa Ono - Nana\07 - Litoral de sol.wav
Pre-gap length 0:00:02.90
Peak level 66.9 %
Track quality 100.0 %
Test CRC 8579E769
Copy CRC 8579E769
Track not present in AccurateRip database
Copy OK
Track 8
Filename D:\All things Kebin II\Downloads\__EAC LOGS__\Lisa Ono - Nana\08 - Paper doll.wav
Pre-gap length 0:00:02.33
Peak level 92.7 %
Track quality 100.0 %
Test CRC 423A0FD8
Copy CRC 423A0FD8
Track not present in AccurateRip database
Copy OK
Track 9
Filename D:\All things Kebin II\Downloads\__EAC LOGS__\Lisa Ono - Nana\09 - Guaruja.wav
Pre-gap length 0:00:02.64
Peak level 82.8 %
Track quality 100.0 %
Test CRC 4BCD04F8
Copy CRC 4BCD04F8
Track not present in AccurateRip database
Copy OK
Track 10
Filename D:\All things Kebin II\Downloads\__EAC LOGS__\Lisa Ono - Nana\10 - A Abelha e o Zangao.wav
Pre-gap length 0:00:02.49
Peak level 100.0 %
Track quality 100.0 %
Test CRC BC7E4C99
Copy CRC BC7E4C99
Track not present in AccurateRip database
Copy OK
Track 11
Filename D:\All things Kebin II\Downloads\__EAC LOGS__\Lisa Ono - Nana\11 - Choro.wav
Pre-gap length 0:00:01.26
Peak level 89.6 %
Track quality 100.0 %
Test CRC E2A1A53B
Copy CRC E2A1A53B
Track not present in AccurateRip database
Copy OK
Track 12
Filename D:\All things Kebin II\Downloads\__EAC LOGS__\Lisa Ono - Nana\12 - Canto para Nana.wav
Pre-gap length 0:00:01.96
Peak level 97.6 %
Track quality 100.0 %
Test CRC A95DB2B4
Copy CRC A95DB2B4
Track not present in AccurateRip database
Copy OK
None of the tracks are present in the AccurateRip database
No errors occurred
End of status report
 
.cue
REM GENRE JPop
REM DATE 1993
REM DISCID A90AA00C
REM COMMENT "ExactAudioCopy v0.99pb4"
PERFORMER "Lisa Ono"
TITLE "Nana"
FILE "Lisa Ono - Nana\01 - Besteira.wav" WAVE
TRACK 01 AUDIO
TITLE "Besteira"
PERFORMER "Lisa Ono"
INDEX 01 00:00:00
TRACK 02 AUDIO
TITLE "Rio de Janeiro"
PERFORMER "Lisa Ono"
INDEX 00 04:44:57
FILE "Lisa Ono - Nana\02 - Rio de Janeiro.wav" WAVE
INDEX 01 00:00:00
TRACK 03 AUDIO
TITLE "Morcega"
PERFORMER "Lisa Ono"
INDEX 00 04:08:07
FILE "Lisa Ono - Nana\03 - Morcega.wav" WAVE
INDEX 01 00:00:00
TRACK 04 AUDIO
TITLE "Maira"
PERFORMER "Lisa Ono"
INDEX 00 02:36:02
FILE "Lisa Ono - Nana\04 - Maira.wav" WAVE
INDEX 01 00:00:00
TRACK 05 AUDIO
TITLE "Sereno"
PERFORMER "Lisa Ono"
INDEX 00 03:54:45
FILE "Lisa Ono - Nana\05 - Sereno.wav" WAVE
INDEX 01 00:00:00
TRACK 06 AUDIO
TITLE "Passeio nas estrelas"
PERFORMER "Lisa Ono"
INDEX 00 04:46:50
FILE "Lisa Ono - Nana\06 - Passeio nas estrelas.wav" WAVE
INDEX 01 00:00:00
TRACK 07 AUDIO
TITLE "Litoral de sol"
PERFORMER "Lisa Ono"
INDEX 00 03:37:10
FILE "Lisa Ono - Nana\07 - Litoral de sol.wav" WAVE
INDEX 01 00:00:00
TRACK 08 AUDIO
TITLE "Paper doll"
PERFORMER "Lisa Ono"
INDEX 00 04:19:42
FILE "Lisa Ono - Nana\08 - Paper doll.wav" WAVE
INDEX 01 00:00:00
TRACK 09 AUDIO
TITLE "Guaruja"
PERFORMER "Lisa Ono"
INDEX 00 03:36:10
FILE "Lisa Ono - Nana\09 - Guaruja.wav" WAVE
INDEX 01 00:00:00
TRACK 10 AUDIO
TITLE "A Abelha e o Zangao"
PERFORMER "Lisa Ono"
INDEX 00 03:15:20
FILE "Lisa Ono - Nana\10 - A Abelha e o Zangao.wav" WAVE
INDEX 01 00:00:00
TRACK 11 AUDIO
TITLE "Choro"
PERFORMER "Lisa Ono"
INDEX 00 02:49:08
FILE "Lisa Ono - Nana\11 - Choro.wav" WAVE
INDEX 01 00:00:00
TRACK 12 AUDIO
TITLE "Canto para Nana"
PERFORMER "Lisa Ono"
INDEX 00 03:01:10
FILE "Lisa Ono - Nana\12 - Canto para Nana.wav" WAVE
INDEX 01 00:00:00
   :arrow: Мои раздачи на трекере
15:08
358
Нет комментариев. Ваш будет первым!