Поиск

(Latin Jazz, Bossa Nova) Lisa Ono - Lisa's Ono Bossa Hula Nova - 2001, FLAC (tracks+.cue), lossless

(Latin Jazz, Bossa Nova) Lisa Ono - Lisa's Ono Bossa Hula Nova - 2001, FLAC (tracks+.cue), lossless
Треклист:
Lisa Ono – Lisa's Ono Bossa Hula Nova
Жанр: Latin Jazz, Bossa Nova
Год издания диска: 2001
Аудиокодек: FLAC (*.flac)
Тип рипа: tracks+.cue
Битрейт аудио: lossless
Продолжительность: 47:53
Источник (релизер): вата
Наличие сканов в содержимом раздачи: нет
Треклист:
01. Swing Time In Honolulu (3:43)
02. Nani Wai'Ale'Ale (2:32)
03. Blue Hawaii (3:18)
04. Manoa (4:57)
05. Mauna Loa (2:42)
06. Hawaiian Vamp / Nova Hula (4:46)
07. E Assim (4:31)
08. Beyond The Reef (3:51)
09. Poliahu (3:42)
10. Kaimana Hila (3:31)
11. Flor De Yemanja (2:22)
12. Sway It, Hula Girl (4:26)
13. Aloha Oe (3:33)
 
Не повтор, там http://rutracker.org/forum/viewtopic.php?t=396138 на один трек больше, да и статус надо поменять (зазоры не определены)
 
 
Лог создания рипа
X Lossless Decoder version 20090315a (104.3)
XLD extraction logfile from 2009-03-17 15:38:24 -0700
Lisa Ono / Lisa Ono Bossa Hula Nova
Used drive : PIONEER DVD-RW DVR-212D (revision 1.21)
Use cdparanoia mode : YES (CDParanoia III 10.2 engine)
Disable audio cache : OK for the drive with cache less than 2750KB
Make use of C2 pointers : NO
Read offset correction : 48
Max retry count : 100
TOC of the extracted CD
Track | Start | Length | Start sector | End sector
---------------------------------------------------------
1 | 00:00:00 | 03:42:47 | 0 | 16696
2 | 03:42:47 | 02:31:55 | 16697 | 28076
3 | 06:14:27 | 03:17:38 | 28077 | 42889
4 | 09:31:65 | 04:56:62 | 42890 | 65151
5 | 14:28:52 | 02:41:38 | 65152 | 77264
6 | 17:10:15 | 04:45:72 | 77265 | 98711
7 | 21:56:12 | 04:31:13 | 98712 | 119049
8 | 26:27:25 | 03:51:27 | 119050 | 136401
9 | 30:18:52 | 03:41:60 | 136402 | 153036
10 | 34:00:37 | 03:31:05 | 153037 | 168866
11 | 37:31:42 | 02:22:08 | 168867 | 179524
12 | 39:53:50 | 04:25:70 | 179525 | 199469
13 | 44:19:45 | 03:33:37 | 199470 | 215481
Track 01
Filename : /Users/Chris/Music/XLD Rips/01 - Swing Time in Honolulu.flac
/Users/Chris/Music/XLD Rips/01 - Swing Time in Honolulu.mp3
CRC32 hash (test run) : 90A4CFD8
CRC32 hash : 90A4CFD8
CRC32 hash (skip zero) : 50478A1C
AccurateRip signature : 10AE5709
->Track not present in AccurateRip database.
Statistics
Read error : 0
Skipped (treated as error) : 0
Edge jitter error (maybe fixed) : 0
Atom jitter error (maybe fixed) : 0
Drift error (maybe fixed) : 0
Dropped bytes error (maybe fixed) : 0
Duplicated bytes error (maybe fixed) : 0
Inconsistency in error sectors : 0
Track 02
Filename : /Users/Chris/Music/XLD Rips/02 - Nani Wai'Ale'Ale.flac
/Users/Chris/Music/XLD Rips/02 - Nani Wai'Ale'Ale.mp3
CRC32 hash (test run) : C4764937
CRC32 hash : C4764937
CRC32 hash (skip zero) : 44789820
AccurateRip signature : 06606D0A
->Track not present in AccurateRip database.
Statistics
Read error : 0
Skipped (treated as error) : 0
Edge jitter error (maybe fixed) : 0
Atom jitter error (maybe fixed) : 1
Drift error (maybe fixed) : 0
Dropped bytes error (maybe fixed) : 0
Duplicated bytes error (maybe fixed) : 0
Inconsistency in error sectors : 0
Track 03
Filename : /Users/Chris/Music/XLD Rips/03 - Blue Hawaii.flac
/Users/Chris/Music/XLD Rips/03 - Blue Hawaii.mp3
CRC32 hash (test run) : C61C1FA0
CRC32 hash : C61C1FA0
CRC32 hash (skip zero) : 84825274
AccurateRip signature : 45225C15
->Track not present in AccurateRip database.
Statistics
Read error : 0
Skipped (treated as error) : 0
Edge jitter error (maybe fixed) : 0
Atom jitter error (maybe fixed) : 0
Drift error (maybe fixed) : 0
Dropped bytes error (maybe fixed) : 0
Duplicated bytes error (maybe fixed) : 0
Inconsistency in error sectors : 0
Track 04
Filename : /Users/Chris/Music/XLD Rips/04 - Manoa.flac
/Users/Chris/Music/XLD Rips/04 - Manoa.mp3
CRC32 hash (test run) : F9D28346
CRC32 hash : F9D28346
CRC32 hash (skip zero) : 7F24D6FA
AccurateRip signature : C10FD1F7
->Track not present in AccurateRip database.
Statistics
Read error : 0
Skipped (treated as error) : 0
Edge jitter error (maybe fixed) : 0
Atom jitter error (maybe fixed) : 1
Drift error (maybe fixed) : 0
Dropped bytes error (maybe fixed) : 0
Duplicated bytes error (maybe fixed) : 0
Inconsistency in error sectors : 0
Track 05
Filename : /Users/Chris/Music/XLD Rips/05 - Mauna Loa.flac
/Users/Chris/Music/XLD Rips/05 - Mauna Loa.mp3
CRC32 hash (test run) : B4328190
CRC32 hash : B4328190
CRC32 hash (skip zero) : C96BD6E3
AccurateRip signature : 5CCA1693
->Track not present in AccurateRip database.
Statistics
Read error : 0
Skipped (treated as error) : 0
Edge jitter error (maybe fixed) : 0
Atom jitter error (maybe fixed) : 0
Drift error (maybe fixed) : 0
Dropped bytes error (maybe fixed) : 0
Duplicated bytes error (maybe fixed) : 0
Inconsistency in error sectors : 0
Track 06
Filename : /Users/Chris/Music/XLD Rips/06 - Hawaiian VampпјЏNova Hula.flac
/Users/Chris/Music/XLD Rips/06 - Hawaiian VampпјЏNova Hula.mp3
CRC32 hash (test run) : 4A7E6880
CRC32 hash : 4A7E6880
CRC32 hash (skip zero) : D72C17EF
AccurateRip signature : 856B29F8
->Track not present in AccurateRip database.
Statistics
Read error : 0
Skipped (treated as error) : 0
Edge jitter error (maybe fixed) : 0
Atom jitter error (maybe fixed) : 0
Drift error (maybe fixed) : 0
Dropped bytes error (maybe fixed) : 0
Duplicated bytes error (maybe fixed) : 0
Inconsistency in error sectors : 0
Track 07
Filename : /Users/Chris/Music/XLD Rips/07 - E Assim.flac
/Users/Chris/Music/XLD Rips/07 - E Assim.mp3
CRC32 hash (test run) : D4FEB009
CRC32 hash : D4FEB009
CRC32 hash (skip zero) : 01784F01
AccurateRip signature : EBB18A26
->Track not present in AccurateRip database.
Statistics
Read error : 0
Skipped (treated as error) : 0
Edge jitter error (maybe fixed) : 0
Atom jitter error (maybe fixed) : 0
Drift error (maybe fixed) : 0
Dropped bytes error (maybe fixed) : 0
Duplicated bytes error (maybe fixed) : 0
Inconsistency in error sectors : 0
Track 08
Filename : /Users/Chris/Music/XLD Rips/08 - Beyond the Reef.flac
/Users/Chris/Music/XLD Rips/08 - Beyond the Reef.mp3
CRC32 hash (test run) : ACAF2137
CRC32 hash : ACAF2137
CRC32 hash (skip zero) : 45D11889
AccurateRip signature : 3F75B866
->Track not present in AccurateRip database.
Statistics
Read error : 0
Skipped (treated as error) : 0
Edge jitter error (maybe fixed) : 0
Atom jitter error (maybe fixed) : 0
Drift error (maybe fixed) : 0
Dropped bytes error (maybe fixed) : 0
Duplicated bytes error (maybe fixed) : 0
Inconsistency in error sectors : 0
Track 09
Filename : /Users/Chris/Music/XLD Rips/09 - Poliahu.flac
/Users/Chris/Music/XLD Rips/09 - Poliahu.mp3
CRC32 hash (test run) : CED3D07D
CRC32 hash : CED3D07D
CRC32 hash (skip zero) : AB924122
AccurateRip signature : 5178DAEE
->Track not present in AccurateRip database.
Statistics
Read error : 0
Skipped (treated as error) : 0
Edge jitter error (maybe fixed) : 0
Atom jitter error (maybe fixed) : 0
Drift error (maybe fixed) : 0
Dropped bytes error (maybe fixed) : 0
Duplicated bytes error (maybe fixed) : 0
Inconsistency in error sectors : 0
Track 10
Filename : /Users/Chris/Music/XLD Rips/10 - Kaimana Hila.flac
/Users/Chris/Music/XLD Rips/10 - Kaimana Hila.mp3
CRC32 hash (test run) : 830C491E
CRC32 hash : 830C491E
CRC32 hash (skip zero) : EBB361D0
AccurateRip signature : 20A861C4
->Track not present in AccurateRip database.
Statistics
Read error : 0
Skipped (treated as error) : 0
Edge jitter error (maybe fixed) : 0
Atom jitter error (maybe fixed) : 0
Drift error (maybe fixed) : 0
Dropped bytes error (maybe fixed) : 0
Duplicated bytes error (maybe fixed) : 0
Inconsistency in error sectors : 0
Track 11
Filename : /Users/Chris/Music/XLD Rips/11 - Flor de Yemanja.flac
/Users/Chris/Music/XLD Rips/11 - Flor de Yemanja.mp3
CRC32 hash (test run) : 7AA1A0BE
CRC32 hash : 7AA1A0BE
CRC32 hash (skip zero) : 277B4BC4
AccurateRip signature : B5529081
->Track not present in AccurateRip database.
Statistics
Read error : 0
Skipped (treated as error) : 0
Edge jitter error (maybe fixed) : 0
Atom jitter error (maybe fixed) : 1
Drift error (maybe fixed) : 0
Dropped bytes error (maybe fixed) : 0
Duplicated bytes error (maybe fixed) : 0
Inconsistency in error sectors : 0
Track 12
Filename : /Users/Chris/Music/XLD Rips/12 - Sway It, Hula Girl.flac
/Users/Chris/Music/XLD Rips/12 - Sway It, Hula Girl.mp3
CRC32 hash (test run) : 408AAB84
CRC32 hash : 408AAB84
CRC32 hash (skip zero) : 7DA18D84
AccurateRip signature : EBE6BA3E
->Track not present in AccurateRip database.
Statistics
Read error : 0
Skipped (treated as error) : 0
Edge jitter error (maybe fixed) : 0
Atom jitter error (maybe fixed) : 0
Drift error (maybe fixed) : 0
Dropped bytes error (maybe fixed) : 0
Duplicated bytes error (maybe fixed) : 0
Inconsistency in error sectors : 0
Track 13
Filename : /Users/Chris/Music/XLD Rips/13 - Aloha Oe.flac
/Users/Chris/Music/XLD Rips/13 - Aloha Oe.mp3
CRC32 hash (test run) : CD76C4F0
CRC32 hash : CD76C4F0
CRC32 hash (skip zero) : 676A08E7
AccurateRip signature : 4C84C0B7
->Track not present in AccurateRip database.
Statistics
Read error : 0
Skipped (treated as error) : 0
Edge jitter error (maybe fixed) : 0
Atom jitter error (maybe fixed) : 0
Drift error (maybe fixed) : 0
Dropped bytes error (maybe fixed) : 0
Duplicated bytes error (maybe fixed) : 0
Inconsistency in error sectors : 0
No errors occurred
End of status report
 
Содержание индексной карты (.CUE)
п»їREM GENRE Jazz
REM DATE 2001
TITLE "Lisa Ono Bossa Hula Nova"
PERFORMER "Lisa Ono"
FILE "01. Swing Time In Honolulu.flac" WAVE
TRACK 01 AUDIO
TITLE "Swing Time In Honolulu"
INDEX 01 00:00:00
TRACK 02 AUDIO
TITLE "Nani Wai'Ale'Ale"
INDEX 00 03:37:65
FILE "02. Nani Wai'Ale'Ale.flac" WAVE
INDEX 01 00:00:00
TRACK 03 AUDIO
TITLE "Blue Hawaii"
INDEX 00 02:26:60
FILE "03. Blue Hawaii.flac" WAVE
INDEX 01 00:00:00
FILE "04. Manoa.flac" WAVE
TRACK 04 AUDIO
TITLE "Manoa"
INDEX 01 00:00:00
TRACK 05 AUDIO
TITLE "Mauna Loa"
INDEX 00 04:53:17
FILE "05. Mauna Loa.flac" WAVE
INDEX 01 00:00:00
TRACK 06 AUDIO
TITLE "Hawaiian Vamp / Nova Hula"
INDEX 00 02:36:50
FILE "06. Hawaiian Vamp - Nova Hula.flac" WAVE
INDEX 01 00:00:00
TRACK 07 AUDIO
TITLE "E Assim"
INDEX 00 04:42:40
FILE "07. E Assim.flac" WAVE
INDEX 01 00:00:00
TRACK 08 AUDIO
TITLE "Beyond The Reef"
INDEX 00 04:25:68
FILE "08. Beyond The Reef.flac" WAVE
INDEX 01 00:00:00
TRACK 09 AUDIO
TITLE "Poliahu"
INDEX 00 03:48:00
FILE "09. Poliahu.flac" WAVE
INDEX 01 00:00:00
TRACK 10 AUDIO
TITLE "Kaimana Hila"
INDEX 00 03:37:55
FILE "10. Kaimana Hila.flac" WAVE
INDEX 01 00:00:00
TRACK 11 AUDIO
TITLE "Flor De Yemanja"
INDEX 00 03:26:40
FILE "11. Flor De Yemanja.flac" WAVE
INDEX 01 00:00:00
TRACK 12 AUDIO
TITLE "Sway It, Hula Girl"
INDEX 00 02:19:20
FILE "12. Sway It, Hula Girl.flac" WAVE
INDEX 01 00:00:00
TRACK 13 AUDIO
TITLE "Aloha Oe"
INDEX 00 04:21:70
FILE "13. Aloha Oe.flac" WAVE
INDEX 01 00:00:00
 
AccurateRip
[CUETools log; Date: 17.01.2012 12:21:41; Version: 2.0.9]
[CTDB TOCID: a7MbYv3t1nyL_oHkw6foAQmelnQ-] found.
[ CTDBID ] Status
[7edae6a9] (2/2) Accurately ripped
[AccurateRip ID: 0016e5d2-00e66ea3-a30b390d] found.
Track [ CRC ] Status
01 [10ae5709] (0/9) No match
02 [06606d0a] (0/9) No match
03 [45225c15] (0/9) No match
04 [c10fd1f7] (0/9) No match
05 [5cca1693] (0/9) No match
06 [856b29f8] (0/9) No match
07 [ebb18a26] (0/9) No match
08 [3f75b866] (0/9) No match
09 [5178daee] (0/9) No match
10 [20a861c4] (0/9) No match
11 [b5529081] (0/9) No match
12 [ebe6ba3e] (0/8) No match
13 [4c84c0b7] (0/9) No match
Offsetted by 702:
01 [20be8c6b] (7/9) Accurately ripped
02 [911492cc] (7/9) Accurately ripped
03 [765630c1] (7/9) Accurately ripped
04 [8af4398b] (7/9) Accurately ripped
05 [24e9a9ad] (7/9) Accurately ripped
06 [a010a90e] (7/9) Accurately ripped
07 [4eeb8b10] (7/9) Accurately ripped
08 [3802d92a] (7/9) Accurately ripped
09 [02d8e33e] (7/9) Accurately ripped
10 [534b088c] (7/9) Accurately ripped
11 [c95c8d89] (7/9) Accurately ripped
12 [62d6bcba] (6/8) Accurately ripped
13 [82c8f3db] (7/9) Accurately ripped
Track Peak [ CRC32 ] [W/O NULL]
-- 98,0 [F11D93F6] [9834BDF8]
01 97,9 [90A4CFD8] [50478A1C]
02 97,9 [C4764937] [44789820]
03 97,9 [C61C1FA0] [84825274]
04 97,9 [F9D28346] [7F24D6FA]
05 97,9 [B4328190] [C96BD6E3]
06 97,9 [4A7E6880] [D72C17EF]
07 97,9 [D4FEB009] [01784F01]
08 97,9 [ACAF2137] [45D11889]
09 97,9 [CED3D07D] [AB924122]
10 97,9 [830C491E] [EBB361D0]
11 98,0 [7AA1A0BE] [277B4BC4]
12 97,9 [408AAB84] [7DA18D84]
13 97,9 [CD76C4F0] [676A08E7]
00:59
265
Нет комментариев. Ваш будет первым!