Поиск

(Latin Jazz, Bossa Nova) Eumir Deodato - Lounge '64 - 2002, FLAC (tracks+.cue), lossless

(Latin Jazz, Bossa Nova) Eumir Deodato - Lounge '64 - 2002, FLAC (tracks+.cue), lossless
Треклист:
♦ Eumir Deodato - Lounge '64 ♦
Жанр: Latin Jazz, Bossa Nova
Страна-производитель диска: Italy
Год издания: 2002
Издатель (лейбл): IRMA
Номер по каталогу: 513419-2
Аудиокодек: FLAC (*.flac)
Тип рипа: tracks+.cue
Битрейт аудио: lossless
Продолжительность: 00:34:53
Источник (релизер): Musicgate
Наличие сканов в содержимом раздачи: да
Треклист:
01. Sally's Tomato - Teach Me Tonight [03:06]
02. So in Love - Echo of Love [02:44]
03. On the Street Where You Live - I Could Have Danced All Night [03:53]
04. Easy to Love - Yesterdays [02:23]
05. Just for Tonight - Moon River [02:28]
06. Quando - Au Revoir [03:25]
07. Mr. Lucky - Speak Low [02:48]
08. Days of Wine and Roses - Misty [03:01]
09. Dans Mon Ile - Ay! Mourir Pour Toi [03:15]
10. Fly Me to the Moon - Our Day Will Come [02:49]
11. Oba La La - La Puerta [02:28]
12. Dansero - The Misfits [02:28]
 
Лог создания рипа
Exact Audio Copy V1.0 beta 2 from 29. April 2011
EAC extraction logfile from 25. November 2012, 15:29
Eumir Deodato / Lounge '64
Used drive : HL-DT-STDVDRAM GSA-T50N Adapter: 1 ID: 0
Read mode : Secure
Utilize accurate stream : Yes
Defeat audio cache : Yes
Make use of C2 pointers : No
Read offset correction : 667
Overread into Lead-In and Lead-Out : No
Fill up missing offset samples with silence : Yes
Delete leading and trailing silent blocks : No
Null samples used in CRC calculations : Yes
Used interface : Native Win32 interface for Win NT & 2000
Gap handling : Appended to previous track
Used output format : User Defined Encoder
Selected bitrate : 1024 kBit/s
Quality : High
Add ID3 tag : No
Command line compressor : C:\Program Files\Exact Audio Copy\Flac\flac.exe
Additional command line options : -8 -V -T "ARTIST=%artist%" -T "TITLE=%title%" -T "ALBUM=%albumtitle%" -T "DATE=%year%" -T "TRACKNUMBER=%tracknr%" -T "GENRE=%genre%" -T "PERFORMER=%albuminterpret%" -T "COMMENT=EAC V1.0 beta 2, Secure Mode, Test & Copy, Acc
TOC of the extracted CD
Track | Start | Length | Start sector | End sector
---------------------------------------------------------
1 | 0:00.00 | 3:06.45 | 0 | 13994
2 | 3:06.45 | 2:44.57 | 13995 | 26351
3 | 5:51.27 | 3:53.28 | 26352 | 43854
4 | 9:44.55 | 2:23.57 | 43855 | 54636
5 | 12:08.37 | 2:28.53 | 54637 | 65789
6 | 14:37.15 | 3:25.25 | 65790 | 81189
7 | 18:02.40 | 2:48.02 | 81190 | 93791
8 | 20:50.42 | 3:01.38 | 93792 | 107404
9 | 23:52.05 | 3:15.10 | 107405 | 122039
10 | 27:07.15 | 2:49.05 | 122040 | 134719
11 | 29:56.20 | 2:28.00 | 134720 | 145819
12 | 32:24.20 | 2:28.62 | 145820 | 156981
Track 1
Filename C:\music\Musicgate's rips\Eumir Deodato - Lounge '64 - 2003 [Irma 513419-2]\01 - Sally's Tomato - Teach Me Tonight.wav
Pre-gap length 0:00:02.00
Peak level 97.3 %
Extraction speed 2.3 X
Track quality 100.0 %
Test CRC 95DA4514
Copy CRC 95DA4514
Accurately ripped (confidence 1) [D36E65BB] (AR v1)
Copy OK
Track 2
Filename C:\music\Musicgate's rips\Eumir Deodato - Lounge '64 - 2003 [Irma 513419-2]\02 - So in Love - Echo of Love.wav
Peak level 98.8 %
Extraction speed 2.5 X
Track quality 100.0 %
Test CRC 1C397D8B
Copy CRC 1C397D8B
Accurately ripped (confidence 1) [DA30AD84] (AR v1)
Copy OK
Track 3
Filename C:\music\Musicgate's rips\Eumir Deodato - Lounge '64 - 2003 [Irma 513419-2]\03 - On the Street Where You Live - I Could Have Danced All Night.wav
Peak level 97.9 %
Extraction speed 2.4 X
Track quality 99.9 %
Test CRC B69FBC87
Copy CRC B69FBC87
Accurately ripped (confidence 1) [ED5BB8B2] (AR v1)
Copy OK
Track 4
Filename C:\music\Musicgate's rips\Eumir Deodato - Lounge '64 - 2003 [Irma 513419-2]\04 - Easy to Love - Yesterdays.wav
Peak level 97.1 %
Extraction speed 2.3 X
Track quality 99.9 %
Test CRC 0D87D327
Copy CRC 0D87D327
Accurately ripped (confidence 1) [681E0628] (AR v1)
Copy OK
Track 5
Filename C:\music\Musicgate's rips\Eumir Deodato - Lounge '64 - 2003 [Irma 513419-2]\05 - Just for Tonight - Moon River.wav
Peak level 99.0 %
Extraction speed 2.4 X
Track quality 99.9 %
Test CRC 34F0EE2F
Copy CRC 34F0EE2F
Accurately ripped (confidence 1) [0DB1A77E] (AR v1)
Copy OK
Track 6
Filename C:\music\Musicgate's rips\Eumir Deodato - Lounge '64 - 2003 [Irma 513419-2]\06 - Quando - Au Revoir.wav
Pre-gap length 0:00:00.93
Peak level 99.8 %
Extraction speed 3.2 X
Track quality 100.0 %
Test CRC 5115E9C5
Copy CRC 5115E9C5
Accurately ripped (confidence 1) [CD306107] (AR v1)
Copy OK
Track 7
Filename C:\music\Musicgate's rips\Eumir Deodato - Lounge '64 - 2003 [Irma 513419-2]\07 - Mr. Lucky - Speak Low.wav
Peak level 100.0 %
Extraction speed 3.3 X
Track quality 100.0 %
Test CRC 2FBFF77D
Copy CRC 2FBFF77D
Accurately ripped (confidence 1) [B0723DDA] (AR v1)
Copy OK
Track 8
Filename C:\music\Musicgate's rips\Eumir Deodato - Lounge '64 - 2003 [Irma 513419-2]\08 - Days of Wine and Roses - Misty.wav
Peak level 99.1 %
Extraction speed 3.4 X
Track quality 100.0 %
Test CRC 181445B6
Copy CRC 181445B6
Accurately ripped (confidence 1) [AE83E39F] (AR v1)
Copy OK
Track 9
Filename C:\music\Musicgate's rips\Eumir Deodato - Lounge '64 - 2003 [Irma 513419-2]\09 - Dans Mon Ile - Ay! Mourir Pour Toi.wav
Peak level 99.5 %
Extraction speed 3.6 X
Track quality 100.0 %
Test CRC 540F6A5B
Copy CRC 540F6A5B
Accurately ripped (confidence 1) [850624A4] (AR v1)
Copy OK
Track 10
Filename C:\music\Musicgate's rips\Eumir Deodato - Lounge '64 - 2003 [Irma 513419-2]\10 - Fly Me to the Moon - Our Day Will Come.wav
Peak level 98.9 %
Extraction speed 3.7 X
Track quality 100.0 %
Test CRC E433843F
Copy CRC E433843F
Accurately ripped (confidence 1) [C6FDC683] (AR v1)
Copy OK
Track 11
Filename C:\music\Musicgate's rips\Eumir Deodato - Lounge '64 - 2003 [Irma 513419-2]\11 - Oba La La - La Puerta.wav
Peak level 99.1 %
Extraction speed 3.6 X
Track quality 100.0 %
Test CRC D7894778
Copy CRC D7894778
Accurately ripped (confidence 1) [BE3A3161] (AR v1)
Copy OK
Track 12
Filename C:\music\Musicgate's rips\Eumir Deodato - Lounge '64 - 2003 [Irma 513419-2]\12 - Dansero - The Misfits.wav
Peak level 99.9 %
Extraction speed 3.8 X
Track quality 100.0 %
Test CRC 1C08C563
Copy CRC 1C08C563
Accurately ripped (confidence 1) [6EFE0E0F] (AR v1)
Copy OK
All tracks accurately ripped
No errors occurred
End of status report
==== Log checksum 0E8FC9C862B8561AAA090118D664C4483D84B9C3D98E5304C1C7FF53A64AAF75 ====
 
Содержание индексной карты (.CUE)
REM GENRE "Easy Listening"
REM DATE 2003
REM DISCID B5082D0C
REM COMMENT "ExactAudioCopy v1.0b2"
PERFORMER "Eumir Deodato"
TITLE "Lounge '64"
FILE "Range.wav" WAVE
TRACK 01 AUDIO
TITLE "Sally's Tomato - Teach Me Tonight"
PERFORMER "Eumir Deodato"
INDEX 01 00:00:00
TRACK 02 AUDIO
TITLE "So in Love - Echo of Love"
PERFORMER "Eumir Deodato"
INDEX 01 03:06:45
TRACK 03 AUDIO
TITLE "On the Street Where You Live - I Could Have Danced All Night"
PERFORMER "Eumir Deodato"
INDEX 01 05:51:27
TRACK 04 AUDIO
TITLE "Easy to Love - Yesterdays"
PERFORMER "Eumir Deodato"
INDEX 01 09:44:55
TRACK 05 AUDIO
TITLE "Just for Tonight - Moon River"
PERFORMER "Eumir Deodato"
INDEX 01 12:08:37
TRACK 06 AUDIO
TITLE "Quando - Au Revoir"
PERFORMER "Eumir Deodato"
INDEX 00 14:36:20
INDEX 01 14:37:15
TRACK 07 AUDIO
TITLE "Mr. Lucky - Speak Low"
PERFORMER "Eumir Deodato"
INDEX 01 18:02:40
TRACK 08 AUDIO
TITLE "Days of Wine and Roses - Misty"
PERFORMER "Eumir Deodato"
INDEX 01 20:50:42
TRACK 09 AUDIO
TITLE "Dans Mon Ile - Ay! Mourir Pour Toi"
PERFORMER "Eumir Deodato"
INDEX 01 23:52:05
TRACK 10 AUDIO
TITLE "Fly Me to the Moon - Our Day Will Come"
PERFORMER "Eumir Deodato"
INDEX 01 27:07:15
TRACK 11 AUDIO
TITLE "Oba La La - La Puerta"
PERFORMER "Eumir Deodato"
INDEX 01 29:56:20
TRACK 12 AUDIO
TITLE "Dansero - The Misfits"
PERFORMER "Eumir Deodato"
INDEX 01 32:24:20
 
Состав
Personnel:
Eumir Deodato - acoustic piano, Hammond organ
Gabriel Bezerra - acoustic bass
Wilson Das Neves - drums
Rubens Bassini - percussion
Humberto Garin - percussion
Jorge Gomes De Rezende - percussion
Neco - acoustic guitar
Geraldo Vespar - electric guitar
J.T. Meirelles - flute
Julio Barbosa - trumpet
Maurilio Dos Santos - trumpet
Irany Pinto - strings, concertmaster
11:10
283
Нет комментариев. Ваш будет первым!