Поиск

(Latin Jazz, Bossa-nova) Celso Fonseca - Natural - 2003, FLAC (image+.cue), lossless

(Latin Jazz, Bossa-nova) Celso Fonseca - Natural - 2003, FLAC (image+.cue), lossless
Треклист:
Celso Fonseca - Natural Жанр: Latin Jazz, Bossa-nova
Год выпуска диска: 2003
Производитель диска: Ziriculboom
Аудио кодек: FLAC
Тип рипа: image+.cue
Битрейт аудио: lossless
Продолжительность: 53:07
Трэклист:
1. Bom Sinal (Celso Fonseca) 5:10
2. Sem Resposta (Celso Fonseca) 2:38
3. A Origem da Felicidade (Celso Fonseca) 4:35
4. The Night We Called It A Day (Tom Adair/Matt Dennis) 3:02
5. Meu Samba Torto (Celso Fonseca) 4:31
6. Febre (Celso Fonseca) 4:28
7. Consolacao (Vinícius de Moraes/Baden Powell) 4:03
8. Ela e Carioca (She's A Carioca) (Vinícius de Moraes/Ray Gilbert/Antonio Carlos Jobim) 2:59
9. Teu Sorriso (Celso Fonseca) 5:27
10. Slow Motion Bossa Nova (Ronaldo Bastos/Celso Fonseca) 5:09
11. Minha Davida de Oliveira (Celso Fonseca/Suely Mesquita) 5:28
12. Buteco 2 (Celso Fonseca) 5:36
Personnel:
Celso Fonseca (Vocals, Guitar, Percussion and Programming)
Daniel Jobim (Piano) - 1,4,6,10
Robertinho Silva (Drums and Percussion) - 3,7,9,11
Jorge Helder (Double Bass) - 1,3,5
Sacha Amback (Keyboards) - 4,6
Ramiro Musotto (Percussion) - 12
Jessé Sadock (Flugelhorn) - 6
Jorginho Gomes (Drums) - 6
Olbelle (Vocals) - 8
Рип от intothe.
 
EAC extraction logfile
Exact Audio Copy V0.99 prebeta 4 from 23. January 2008
EAC extraction logfile from 21. April 2010, 8:52
Celso Fonseca / Natural
Used drive : _NEC DVD_RW ND-3500AG Adapter: 0 ID: 0
Read mode : Secure
Utilize accurate stream : Yes
Defeat audio cache : Yes
Make use of C2 pointers : No
Read offset correction : 48
Overread into Lead-In and Lead-Out : No
Fill up missing offset samples with silence : Yes
Delete leading and trailing silent blocks : No
Null samples used in CRC calculations : Yes
Used interface : Native Win32 interface for Win NT & 2000
Used output format : User Defined Encoder
Selected bitrate : 768 kBit/s
Quality : High
Add ID3 tag : No
Command line compressor : C:\Program Files\Exact Audio Copy\FLAC\FLAC.EXE
Additional command line options : -6 -V -T "ARTIST=%a" -T "TITLE=%t" -T "ALBUM=%g" -T "DATE=%y" -T "TRACKNUMBER=%n" -T "GENRE=%m" -T "COMMENT=%e" %s -o %d
TOC of the extracted CD
Track | Start | Length | Start sector | End sector
---------------------------------------------------------
1 | 0:00.10 | 5:10.32 | 10 | 23291
2 | 5:10.42 | 2:38.20 | 23292 | 35161
3 | 7:48.62 | 4:35.73 | 35162 | 55859
4 | 12:24.60 | 3:02.55 | 55860 | 69564
5 | 15:27.40 | 4:31.62 | 69565 | 89951
6 | 19:59.27 | 4:28.63 | 89952 | 110114
7 | 24:28.15 | 4:03.57 | 110115 | 128396
8 | 28:31.72 | 2:59.65 | 128397 | 141886
9 | 31:31.62 | 5:27.10 | 141887 | 166421
10 | 36:58.72 | 5:09.63 | 166422 | 189659
11 | 42:08.60 | 5:28.35 | 189660 | 214294
12 | 47:37.20 | 5:37.12 | 214295 | 239581
Range status and errors
Selected range
Filename J:\eMusic\Rip\Celso Fonseca - Natural.wav
Peak level 100.0 %
Range quality 99.7 %
Test CRC D60A9024
Copy CRC D60A9024
Copy OK
No errors occurred
AccurateRip summary
Track 1 accurately ripped (confidence 7) [5DB6FE0F]
Track 2 accurately ripped (confidence 7) [8EDF4831]
Track 3 accurately ripped (confidence 7) [44D26B59]
Track 4 accurately ripped (confidence 7) [26080FDA]
Track 5 accurately ripped (confidence 7) [F04F3096]
Track 6 accurately ripped (confidence 7) [55841498]
Track 7 accurately ripped (confidence 7) [59CC9A73]
Track 8 accurately ripped (confidence 7) [51AA6064]
Track 9 accurately ripped (confidence 7) [C810E282]
Track 10 accurately ripped (confidence 7) [293A301B]
Track 11 accurately ripped (confidence 7) [D4640EBB]
Track 12 accurately ripped (confidence 7) [65A3ABBB]
All tracks accurately ripped
End of status report
 
Audiochecker logfile
Started at: пятница, 25. 06. 2010. - 11:41.36
1 file found
1 -===- D:\Celso Fonseca - Natural\Celso Fonseca - Natural.flac
Extracted successfully
Conclusion: this track is CDDA with probability 99%
Tempfile successfully deleted.
Finished at: пятница, 25. 06. 2010. - 11:46.42 (operation time: 0:05.05)
Взамен безоффсетного рипа.
Настоятельно рекомендую также его альбом Rive Gauche Rio, совершенно непонятно как попавший в раздел Nu Jazz, Acid Jazz, Future Jazz, как и этот. Предпрослушка Приятных впечатлений!
16:31
347
Нет комментариев. Ваш будет первым!