Поиск

(Latin Jazz, Bossa Nova) [CD] VA - Pure Brazil: Samba Soul Groove - 2004, FLAC (tracks+.cue), lossless

(Latin Jazz, Bossa Nova) [CD] VA - Pure Brazil: Samba Soul Groove - 2004, FLAC (tracks+.cue), lossless
Various - Pure Brazil: Samba Soul Groove Жанр: Latin Jazz, Bossa Nova
Носитель: CD
Год издания: 2004
Издатель (лейбл): Universal Music Latino
Номер по каталогу: B0002523-02
Аудиокодек: FLAC (*.flac)
Тип рипа: tracks+.cue
Битрейт аудио: lossless
Продолжительность: 48:03
Источник (релизер): TestTickles
Наличие сканов в содержимом раздачи: да
Треклист:
01. Take It Easy My Brother Charles (Jorge Ben) (2:36)
02. Maracatu Atomico (Gilberto Gil) (2:58)
03. She's My Shoo Shoo (A Minha Menina) (Os Mutantes) (2:54)
04. Flor De Maracuja (Gal Costa) (3:00)
05. Ive Brussel (Jorge Ben & Caetano Veloso) (4:43)
06. Reu Confesso (Tim Maia) (3:39)
07. De Noite Na Cama (Erasmo Carlos) (3:19)
08. Chiclete Com Banana (Gilberto Gil) (3:24)
09. E Esso Ai (Paula Lima) (3:23)
10. Os Alquimistas Estao Chegando Os Alquimistas (Jorge Ben) (3:00)
11. A Beleza E Voce, Menina (Bebeto) (3:56)
12. Nega De Obaluae (Copa) (3:51)
13. Mane Joao (Erasmo Carlos) (3:16)
14. Xica Da Silva (Jorge Ben) (4:05)
 
 
Об альбоме (сборнике)
Pure Brazil: Samba Soul Groove is a 2004 compilation CD of Brazilian music released through Universal Music Latino. Some of the artists featured include Caetano Veloso, Os Mutantes, Jorge Ben, Gilberto Gill, Gal Costa, and many more.
 
 
Лог создания рипа
Exact Audio Copy V1.1 from 23. June 2015
EAC extraction logfile from 11. March 2017, 11:28
Various Artists / Pure Brazil: Samba Soul Groove
Used drive : TEAC DVD-ROM DV-28SW Adapter: 1 ID: 0
Read mode : Secure
Utilize accurate stream : Yes
Defeat audio cache : Yes
Make use of C2 pointers : No
Read offset correction : 6
Overread into Lead-In and Lead-Out : No
Fill up missing offset samples with silence : Yes
Delete leading and trailing silent blocks : No
Null samples used in CRC calculations : Yes
Used interface : Native Win32 interface for Win NT & 2000
Gap handling : Appended to previous track
Used output format : Internal WAV Routines
Sample format : 44.100 Hz; 16 Bit; Stereo
TOC of the extracted CD
Track | Start | Length | Start sector | End sector
---------------------------------------------------------
1 | 0:00.00 | 2:35.53 | 0 | 11677
2 | 2:35.53 | 2:57.58 | 11678 | 25010
3 | 5:33.36 | 2:53.43 | 25011 | 38028
4 | 8:27.04 | 3:00.28 | 38029 | 51556
5 | 11:27.32 | 4:42.65 | 51557 | 72771
6 | 16:10.22 | 3:38.56 | 72772 | 89177
7 | 19:49.03 | 3:18.72 | 89178 | 104099
8 | 23:08.00 | 3:24.37 | 104100 | 119436
9 | 26:32.37 | 3:22.65 | 119437 | 134651
10 | 29:55.27 | 3:00.19 | 134652 | 148170
11 | 32:55.46 | 3:55.69 | 148171 | 165864
12 | 36:51.40 | 3:51.08 | 165865 | 183197
13 | 40:42.48 | 3:15.66 | 183198 | 197888
14 | 43:58.39 | 4:04.38 | 197889 | 216226
Track 1
Filename C:\My Documents\My FLAC\VA - Pure Brazil, Samba Soul Groove (2004) [FLAC] {Universal Music Latino}\01 - Jorge Ben - Take It Easy My Brother Charles.wav
Pre-gap length 0:00:02.00
Peak level 99.3 %
Extraction speed 2.0 X
Track quality 99.9 %
Test CRC 54A8523F
Copy CRC 54A8523F
Accurately ripped (confidence 3) [295C9AD6] (AR v2)
Copy OK
Track 2
Filename C:\My Documents\My FLAC\VA - Pure Brazil, Samba Soul Groove (2004) [FLAC] {Universal Music Latino}\02 - Gilberto Gil - Maracatu Atomico.wav
Peak level 99.3 %
Extraction speed 2.5 X
Track quality 100.0 %
Test CRC 30E50209
Copy CRC 30E50209
Accurately ripped (confidence 3) [79B7329C] (AR v2)
Copy OK
Track 3
Filename C:\My Documents\My FLAC\VA - Pure Brazil, Samba Soul Groove (2004) [FLAC] {Universal Music Latino}\03 - Os Mutantes - She's My Shoo Shoo (A Minha Menina).wav
Peak level 99.3 %
Extraction speed 2.0 X
Track quality 100.0 %
Test CRC 3F5A086A
Copy CRC 3F5A086A
Accurately ripped (confidence 3) [1998D2A0] (AR v2)
Copy OK
Track 4
Filename C:\My Documents\My FLAC\VA - Pure Brazil, Samba Soul Groove (2004) [FLAC] {Universal Music Latino}\04 - Gal Costa - Flor De Maracuja.wav
Peak level 99.3 %
Extraction speed 2.9 X
Track quality 100.0 %
Test CRC BE79C61E
Copy CRC BE79C61E
Accurately ripped (confidence 3) [DAAE6653] (AR v2)
Copy OK
Track 5
Filename C:\My Documents\My FLAC\VA - Pure Brazil, Samba Soul Groove (2004) [FLAC] {Universal Music Latino}\05 - Jorge Ben & Caetano Veloso - Ive Brussel.wav
Peak level 95.9 %
Extraction speed 2.3 X
Track quality 99.9 %
Test CRC 3542F2D1
Copy CRC 3542F2D1
Accurately ripped (confidence 3) [957D83ED] (AR v2)
Copy OK
Track 6
Filename C:\My Documents\My FLAC\VA - Pure Brazil, Samba Soul Groove (2004) [FLAC] {Universal Music Latino}\06 - Tim Maia - Reu Confesso.wav
Peak level 99.3 %
Extraction speed 3.3 X
Track quality 100.0 %
Test CRC 731D91A2
Copy CRC 731D91A2
Accurately ripped (confidence 3) [BEBEC2B7] (AR v2)
Copy OK
Track 7
Filename C:\My Documents\My FLAC\VA - Pure Brazil, Samba Soul Groove (2004) [FLAC] {Universal Music Latino}\07 - Erasmo Carlos - De Noite Na Cama.wav
Peak level 99.2 %
Extraction speed 3.3 X
Track quality 100.0 %
Test CRC C3F1072F
Copy CRC C3F1072F
Accurately ripped (confidence 3) [ACE63DDE] (AR v2)
Copy OK
Track 8
Filename C:\My Documents\My FLAC\VA - Pure Brazil, Samba Soul Groove (2004) [FLAC] {Universal Music Latino}\08 - Gilberto Gil - Chiclete Com Banana.wav
Peak level 99.1 %
Extraction speed 3.0 X
Track quality 99.9 %
Test CRC 066B27B9
Copy CRC 066B27B9
Accurately ripped (confidence 3) [6C0A1E8C] (AR v2)
Copy OK
Track 9
Filename C:\My Documents\My FLAC\VA - Pure Brazil, Samba Soul Groove (2004) [FLAC] {Universal Music Latino}\09 - Paula Lima - E Esso Ai.wav
Peak level 88.1 %
Extraction speed 3.0 X
Track quality 99.9 %
Test CRC 57CD2A40
Copy CRC 57CD2A40
Accurately ripped (confidence 3) [91DE2BE5] (AR v2)
Copy OK
Track 10
Filename C:\My Documents\My FLAC\VA - Pure Brazil, Samba Soul Groove (2004) [FLAC] {Universal Music Latino}\10 - Jorge Ben - Os Alquimistas Estao Chegando Os Alquimistas.wav
Peak level 99.3 %
Extraction speed 3.1 X
Track quality 99.9 %
Test CRC BE960B21
Copy CRC BE960B21
Accurately ripped (confidence 3) [BBADC7FA] (AR v2)
Copy OK
Track 11
Filename C:\My Documents\My FLAC\VA - Pure Brazil, Samba Soul Groove (2004) [FLAC] {Universal Music Latino}\11 - Bebeto - A Beleza E Voce, Menina.wav
Peak level 94.4 %
Extraction speed 3.9 X
Track quality 100.0 %
Test CRC 3D82BE18
Copy CRC 3D82BE18
Accurately ripped (confidence 3) [2843657A] (AR v2)
Copy OK
Track 12
Filename C:\My Documents\My FLAC\VA - Pure Brazil, Samba Soul Groove (2004) [FLAC] {Universal Music Latino}\12 - Copa - Nega De Obaluae.wav
Peak level 99.3 %
Extraction speed 2.9 X
Track quality 100.0 %
Test CRC B6B95DDE
Copy CRC B6B95DDE
Accurately ripped (confidence 3) [5586B4D2] (AR v2)
Copy OK
Track 13
Filename C:\My Documents\My FLAC\VA - Pure Brazil, Samba Soul Groove (2004) [FLAC] {Universal Music Latino}\13 - Erasmo Carlos - Mane Joao.wav
Peak level 99.5 %
Extraction speed 0.5 X
Track quality 99.9 %
Test CRC 20F6E1A9
Copy CRC 20F6E1A9
Accurately ripped (confidence 3) [279D1EA7] (AR v2)
Copy OK
Track 14
Filename C:\My Documents\My FLAC\VA - Pure Brazil, Samba Soul Groove (2004) [FLAC] {Universal Music Latino}\14 - Jorge Ben - Xica Da Silva.wav
Peak level 99.2 %
Extraction speed 3.9 X
Track quality 100.0 %
Test CRC 41813E2E
Copy CRC 41813E2E
Accurately ripped (confidence 3) [016682D4] (AR v2)
Copy OK
All tracks accurately ripped
No errors occurred
End of status report
---- CUETools DB Plugin V2.1.6
[CTDB TOCID: VczSjpHxxvBedBdA57XHaG5etAg-] found
Submit result: VczSjpHxxvBedBdA57XHaG5etAg- has been confirmed
Track | CTDB Status
1 | (7/7) Accurately ripped
2 | (7/7) Accurately ripped
3 | (7/7) Accurately ripped
4 | (7/7) Accurately ripped
5 | (7/7) Accurately ripped
6 | (7/7) Accurately ripped
7 | (7/7) Accurately ripped
8 | (7/7) Accurately ripped
9 | (7/7) Accurately ripped
10 | (6/7) Accurately ripped
11 | (7/7) Accurately ripped
12 | (7/7) Accurately ripped
13 | (7/7) Accurately ripped
14 | (7/7) Accurately ripped
==== Log checksum 63274CC88FD83AD4D370E42DFA6B0D070A87EFE8EADDACA53D1DE0A2B20B604C ====
 
Содержание индексной карты (.CUE)
REM GENRE Brazilian
REM DATE 2004
REM DISCID CF0B430E
REM COMMENT "ExactAudioCopy v1.1"
CATALOG 0602498189535
PERFORMER "Various"
TITLE "Pure Brazil: Samba Soul Groove"
FILE "01 - Jorge Ben - Take It Easy My Brother Charles.wav" WAVE
TRACK 01 AUDIO
TITLE "Take It Easy My Brother Charles"
PERFORMER "Jorge Ben"
ISRC BRPGD6900037
INDEX 01 00:00:00
FILE "02 - Gilberto Gil - Maracatu Atomico.wav" WAVE
TRACK 02 AUDIO
TITLE "Maracatu Atomico"
PERFORMER "Gilberto Gil"
ISRC BRPGD7300007
INDEX 01 00:00:00
FILE "03 - Os Mutantes - She's My Shoo Shoo (A Minha Menina).wav" WAVE
TRACK 03 AUDIO
TITLE "She's My Shoo Shoo (A Minha Menina)"
PERFORMER "Os Mutantes"
ISRC BRPGD7100050
INDEX 01 00:00:00
FILE "04 - Gal Costa - Flor De Maracuja.wav" WAVE
TRACK 04 AUDIO
TITLE "Flor De Maracuja"
PERFORMER "Gal Costa"
ISRC BRMCA7400097
INDEX 01 00:00:00
FILE "05 - Jorge Ben & Caetano Veloso - Ive Brussel.wav" WAVE
TRACK 05 AUDIO
TITLE "Ive Brussel"
PERFORMER "Jorge Ben & Caetano Veloso"
ISRC BRSGL7900008
INDEX 01 00:00:00
FILE "06 - Tim Maia - Reu Confesso.wav" WAVE
TRACK 06 AUDIO
TITLE "Reu Confesso"
PERFORMER "Tim Maia"
ISRC BRMCA7300057
INDEX 01 00:00:00
FILE "07 - Erasmo Carlos - De Noite Na Cama.wav" WAVE
TRACK 07 AUDIO
TITLE "De Noite Na Cama"
PERFORMER "Erasmo Carlos"
ISRC BRMCA7100010
INDEX 01 00:00:00
FILE "08 - Gilberto Gil - Chiclete Com Banana.wav" WAVE
TRACK 08 AUDIO
TITLE "Chiclete Com Banana"
PERFORMER "Gilberto Gil"
ISRC BRPGD7200009
INDEX 01 00:00:00
FILE "09 - Paula Lima - E Esso Ai.wav" WAVE
TRACK 09 AUDIO
TITLE "E Esso Ai"
PERFORMER "Paula Lima"
ISRC BRMCA0100753
INDEX 01 00:00:00
FILE "10 - Jorge Ben - Os Alquimistas Estao Chegando Os Alquimistas.wav" WAVE
TRACK 10 AUDIO
TITLE "Os Alquimistas Estao Chegando Os Alquimistas"
PERFORMER "Jorge Ben"
ISRC BRMCA7400129
INDEX 01 00:00:00
FILE "11 - Bebeto - A Beleza E Voce, Menina.wav" WAVE
TRACK 11 AUDIO
TITLE "A Beleza E Voce, Menina"
PERFORMER "Bebeto"
ISRC BRPGD9900260
INDEX 01 00:00:00
FILE "12 - Copa - Nega De Obaluae.wav" WAVE
TRACK 12 AUDIO
TITLE "Nega De Obaluae"
PERFORMER "Copa"
ISRC BRMCA9300123
INDEX 01 00:00:00
FILE "13 - Erasmo Carlos - Mane Joao.wav" WAVE
TRACK 13 AUDIO
TITLE "Mane Joao"
PERFORMER "Erasmo Carlos"
ISRC BRMCA7200063
INDEX 01 00:00:00
FILE "14 - Jorge Ben - Xica Da Silva.wav" WAVE
TRACK 14 AUDIO
TITLE "Xica Da Silva"
PERFORMER "Jorge Ben"
ISRC BRMCA7200063
INDEX 01 00:00:00
00:17
272
Нет комментариев. Ваш будет первым!