Поиск

(Latin Jazz, Bossa Nova) [CD] Lisa Ono - Japao - 2011 (Japan Edition), FLAC (tracks+.cue), lossless

(Latin Jazz, Bossa Nova) [CD] Lisa Ono - Japao - 2011 (Japan Edition), FLAC (tracks+.cue), lossless
Треклист:
Lisa Ono - Japao
Жанр: Latin Jazz, Bossa Nova
Носитель: CD
Страна-производитель диска (релиза): Япония
Год издания: 2011
Издатель (лейбл): Dreamusic
Номер по каталогу: MUCD-1254
Аудиокодек: FLAC (*.flac)
Тип рипа: tracks+.cue
Битрейт аудио: lossless
Продолжительность: 55:04
Источник (релизер): dzm9keef (what)
Наличие сканов в содержимом раздачи: нет
Треклист:
01. Tasogare no Begin (4:27)
02. Olivia wo Kiki Nagara (4:12)
03. Tsubasa no Oreta Tenshi (5:11)
04. Ima wa, Konomama (4:23)
05. Kitte no Nai Okurimono (3:52)
06. Touku He Ikitai (4:54)
07. Isso Serenade (4:57)
08. Ano Hi ni Kaeritai (5:20)
09. Ihoujin (3:29)
10. Moliendo Cafe (Coffee Rumba) (3:18)
11. My Angel, My Love (5:18)
12. Miagete Goran Yoru no Hoshi Wo (5:43)
 
Лог создания рипа
Exact Audio Copy V1.1 from 23. June 2015
EAC extraction logfile from 9. July 2016, 9:39
小野リサ / ジャポン
Used drive : MATSHITABD-MLT UJ240AS Adapter: 1 ID: 0
Read mode : Secure
Utilize accurate stream : Yes
Defeat audio cache : Yes
Make use of C2 pointers : No
Read offset correction : 103
Overread into Lead-In and Lead-Out : No
Fill up missing offset samples with silence : Yes
Delete leading and trailing silent blocks : No
Null samples used in CRC calculations : Yes
Used interface : Native Win32 interface for Win NT & 2000
Gap handling : Appended to previous track
Used output format : User Defined Encoder
Selected bitrate : 256 kBit/s
Quality : High
Add ID3 tag : No
Command line compressor : D:\Program Files (x86)\Exact Audio Copy\Flac\flac.exe
Additional command line options : -8 -V -T "ARTIST=%artist%" -T "TITLE=%title%" -T "ALBUM=%albumtitle%" -T "DATE=%year%" -T "TRACKNUMBER=%tracknr%" -T "GENRE=%genre%" -T "PERFORMER=%albuminterpret%" -T "COMPOSER=%composer%" %haslyrics%--tag-from-file=LYRICS="%lyricsfile%"%haslyrics% -T "ALBUMARTIST=%albumartist%" -T "DISCNUMBER=%cdnumber%" -T "TOTALDISCS=%totalcds%" -T "TOTALTRACKS=%numtracks%" -T "COMMENT=%comment%" %source% -o %dest%
TOC of the extracted CD
Track | Start | Length | Start sector | End sector
---------------------------------------------------------
1 | 0:00.00 | 4:26.63 | 0 | 20012
2 | 4:26.63 | 4:12.15 | 20013 | 38927
3 | 8:39.03 | 5:11.10 | 38928 | 62262
4 | 13:50.13 | 4:22.50 | 62263 | 81962
5 | 18:12.63 | 3:52.04 | 81963 | 99366
6 | 22:04.67 | 4:53.38 | 99367 | 121379
7 | 26:58.30 | 4:57.23 | 121380 | 143677
8 | 31:55.53 | 5:20.15 | 143678 | 167692
9 | 37:15.68 | 3:29.02 | 167693 | 183369
10 | 40:44.70 | 3:18.15 | 183370 | 198234
11 | 44:03.10 | 5:17.65 | 198235 | 222074
12 | 49:21.00 | 5:42.38 | 222075 | 247762
Track 1
Filename D:\u2\what.cd\Japao - Lisa Ono\01. 黄昏のビギン.wav
Pre-gap length 0:00:02.00
Peak level 98.8 %
Extraction speed 2.5 X
Track quality 100.0 %
Test CRC 3C8D5FEE
Copy CRC 3C8D5FEE
Accurately ripped (confidence 6) [B6DDA0C0] (AR v2)
Copy OK
Track 2
Filename D:\u2\what.cd\Japao - Lisa Ono\02. オリビアを聴きながら.wav
Pre-gap length 0:00:03.58
Peak level 98.8 %
Extraction speed 2.8 X
Track quality 100.0 %
Test CRC 91F3B9B7
Copy CRC 91F3B9B7
Accurately ripped (confidence 6) [7E1FE603] (AR v2)
Copy OK
Track 3
Filename D:\u2\what.cd\Japao - Lisa Ono\03. 翼の折れた天使.wav
Pre-gap length 0:00:03.58
Peak level 98.8 %
Extraction speed 3.1 X
Track quality 100.0 %
Test CRC A8E7C56B
Copy CRC A8E7C56B
Accurately ripped (confidence 6) [52E0D1DA] (AR v2)
Copy OK
Track 4
Filename D:\u2\what.cd\Japao - Lisa Ono\04. 今は、このまま.wav
Pre-gap length 0:00:03.58
Peak level 98.8 %
Extraction speed 3.3 X
Track quality 100.0 %
Test CRC 5977395A
Copy CRC 5977395A
Accurately ripped (confidence 6) [D5E02246] (AR v2)
Copy OK
Track 5
Filename D:\u2\what.cd\Japao - Lisa Ono\05. 切手のないおくりもの.wav
Pre-gap length 0:00:03.58
Peak level 98.8 %
Extraction speed 3.1 X
Track quality 99.9 %
Test CRC EA712DC6
Copy CRC EA712DC6
Accurately ripped (confidence 6) [ED3AD2C2] (AR v2)
Copy OK
Track 6
Filename D:\u2\what.cd\Japao - Lisa Ono\06. 遠くへ行きたい.wav
Pre-gap length 0:00:03.57
Peak level 98.6 %
Extraction speed 3.8 X
Track quality 100.0 %
Test CRC 8724BECE
Copy CRC 8724BECE
Accurately ripped (confidence 6) [19A44E2A] (AR v2)
Copy OK
Track 7
Filename D:\u2\what.cd\Japao - Lisa Ono\07. いっそセレナーデ.wav
Pre-gap length 0:00:04.58
Peak level 98.1 %
Extraction speed 4.0 X
Track quality 100.0 %
Test CRC 3AA38476
Copy CRC 3AA38476
Accurately ripped (confidence 6) [177ACD2E] (AR v2)
Copy OK
Track 8
Filename D:\u2\what.cd\Japao - Lisa Ono\08. あの日にかえりたい.wav
Pre-gap length 0:00:04.58
Peak level 98.8 %
Extraction speed 4.2 X
Track quality 100.0 %
Test CRC C826AF2F
Copy CRC C826AF2F
Accurately ripped (confidence 6) [EC5A0EAC] (AR v2)
Copy OK
Track 9
Filename D:\u2\what.cd\Japao - Lisa Ono\09. 異邦人.wav
Pre-gap length 0:00:04.58
Peak level 98.8 %
Extraction speed 4.2 X
Track quality 100.0 %
Test CRC 920F0102
Copy CRC 920F0102
Accurately ripped (confidence 6) [F3862E0A] (AR v2)
Copy OK
Track 10
Filename D:\u2\what.cd\Japao - Lisa Ono\10. コーヒー・ルンバ.wav
Pre-gap length 0:00:03.57
Peak level 98.8 %
Extraction speed 3.7 X
Track quality 99.9 %
Test CRC 68736957
Copy CRC 68736957
Accurately ripped (confidence 6) [F2464BD8] (AR v2)
Copy OK
Track 11
Filename D:\u2\what.cd\Japao - Lisa Ono\11. My Angel, My Love.wav
Pre-gap length 0:00:03.57
Peak level 98.8 %
Extraction speed 4.7 X
Track quality 100.0 %
Test CRC FC134D4F
Copy CRC FC134D4F
Accurately ripped (confidence 6) [8E2EA486] (AR v2)
Copy OK
Track 12
Filename D:\u2\what.cd\Japao - Lisa Ono\12. 見上げてごらん夜の星を.wav
Pre-gap length 0:00:03.58
Peak level 98.8 %
Extraction speed 4.9 X
Track quality 100.0 %
Test CRC CE9CAAE3
Copy CRC CE9CAAE3
Accurately ripped (confidence 6) [81C2BAA8] (AR v2)
Copy OK
All tracks accurately ripped
No errors occurred
End of status report
---- CUETools DB Plugin V2.1.6
[CTDB TOCID: vSCD6h1Mc4BpdzC8.aWLpkqD0z0-] found
Submit result: vSCD6h1Mc4BpdzC8.aWLpkqD0z0- has been confirmed
Track | CTDB Status
1 | (54/68) Accurately ripped
2 | (54/68) Accurately ripped
3 | (54/68) Accurately ripped
4 | (54/68) Accurately ripped
5 | (54/68) Accurately ripped
6 | (54/68) Accurately ripped
7 | (54/68) Accurately ripped
8 | (54/68) Accurately ripped
9 | (54/68) Accurately ripped
10 | (53/68) Accurately ripped
11 | (52/68) Accurately ripped
12 | (53/68) Accurately ripped
==== Log checksum 83B55D2CA16AFF0157E6E97D87F61B197822D3E8102FC849A6B0D1EE31A3553B ====
 
Содержание индексной карты (.CUE)
REM GENRE Jazz
REM DATE 2011
REM DISCID 9F0CE70C
REM COMMENT "ExactAudioCopy v1.1"
CATALOG 0600753373958
PERFORMER "Lisa Ono"
TITLE "Japao"
FILE "01 - Tasogare no Begin.wav" WAVE
TRACK 01 AUDIO
TITLE "Tasogare no Begin"
PERFORMER "Lisa Ono"
ISRC JPN901102020
INDEX 01 00:00:00
TRACK 02 AUDIO
TITLE "Olivia wo Kiki Nagara"
PERFORMER "Lisa Ono"
ISRC JPN901102030
INDEX 00 04:23:05
FILE "02 - Olivia wo Kiki Nagara.wav" WAVE
INDEX 01 00:00:00
TRACK 03 AUDIO
TITLE "Tsubasa no Oreta Tenshi"
PERFORMER "Lisa Ono"
ISRC JPN901102040
INDEX 00 04:08:32
FILE "03 - Tsubasa no Oreta Tenshi.wav" WAVE
INDEX 01 00:00:00
TRACK 04 AUDIO
TITLE "Ima wa, Konomama"
PERFORMER "Lisa Ono"
ISRC JPN901102050
INDEX 00 05:07:27
FILE "04 - Ima wa, Konomama.wav" WAVE
INDEX 01 00:00:00
TRACK 05 AUDIO
TITLE "Kitte no Nai Okurimono"
PERFORMER "Lisa Ono"
ISRC JPN901102060
INDEX 00 04:18:67
FILE "05 - Kitte no Nai Okurimono.wav" WAVE
INDEX 01 00:00:00
TRACK 06 AUDIO
TITLE "Touku He Ikitai"
PERFORMER "Lisa Ono"
ISRC JPN901102070
INDEX 00 03:48:22
FILE "06 - Touku He Ikitai.wav" WAVE
INDEX 01 00:00:00
TRACK 07 AUDIO
TITLE "Isso Serenade"
PERFORMER "Lisa Ono"
ISRC JPN901102080
INDEX 00 04:48:55
FILE "07 - Isso Serenade.wav" WAVE
INDEX 01 00:00:00
TRACK 08 AUDIO
TITLE "Ano Hi ni Kaeritai"
PERFORMER "Lisa Ono"
ISRC JPN901102090
INDEX 00 04:52:40
FILE "08 - Ano Hi ni Kaeritai.wav" WAVE
INDEX 01 00:00:00
TRACK 09 AUDIO
TITLE "Ihoujin"
PERFORMER "Lisa Ono"
ISRC JPN901102100
INDEX 00 05:15:32
FILE "09 - Ihoujin.wav" WAVE
INDEX 01 00:00:00
TRACK 10 AUDIO
TITLE "Moliendo Cafe (Coffee Rumba)"
PERFORMER "Lisa Ono"
ISRC JPN901102110
INDEX 00 03:25:20
FILE "10 - Moliendo Cafe (Coffee Rumba).wav" WAVE
INDEX 01 00:00:00
TRACK 11 AUDIO
TITLE "My Angel, My Love"
PERFORMER "Lisa Ono"
ISRC JPN901102120
INDEX 00 03:14:33
FILE "11 - My Angel, My Love.wav" WAVE
INDEX 01 00:00:00
TRACK 12 AUDIO
TITLE "Miagete Goran Yoru no Hoshi Wo"
PERFORMER "Lisa Ono"
ISRC JPN901102130
INDEX 00 05:14:07
FILE "12 - Miagete Goran Yoru no Hoshi Wo.wav" WAVE
INDEX 01 00:00:00
 
Отчет CUETools
[CUETools log; Date: 16.07.2016 13:47:39; Version: 2.1.5]
[CTDB TOCID: vSCD6h1Mc4BpdzC8.aWLpkqD0z0-] found.
Track | CTDB Status
1 | (55/69) Accurately ripped
2 | (55/69) Accurately ripped
3 | (55/69) Accurately ripped
4 | (55/69) Accurately ripped
5 | (55/69) Accurately ripped
6 | (55/69) Accurately ripped
7 | (55/69) Accurately ripped
8 | (55/69) Accurately ripped
9 | (55/69) Accurately ripped
10 | (54/69) Accurately ripped
11 | (53/69) Accurately ripped
12 | (54/69) Accurately ripped
[AccurateRip ID: 00183628-00e223d1-9f0ce70c] found.
Track [ CRC | V2 ] Status
01 [6b30c988|b6dda0c0] (00+06/31) Accurately ripped
02 [0b404c59|7e1fe603] (00+06/31) Accurately ripped
03 [eaf31921|52e0d1da] (00+06/31) Accurately ripped
04 [0aada85a|d5e02246] (00+06/31) Accurately ripped
05 [9f139122|ed3ad2c2] (00+06/31) Accurately ripped
06 [2b26081b|19a44e2a] (00+06/31) Accurately ripped
07 [3164c946|177acd2e] (00+06/31) Accurately ripped
08 [9a44212e|ec5a0eac] (00+06/31) Accurately ripped
09 [9223c936|f3862e0a] (00+06/31) Accurately ripped
10 [3a48615a|f2464bd8] (00+06/31) Accurately ripped
11 [0adde620|8e2ea486] (00+06/31) Accurately ripped
12 [c3a1c24e|81c2baa8] (00+06/31) Accurately ripped
Offsetted by 36:
01 [589773bc] (04/31) Accurately ripped
02 [61116a59] (04/31) Accurately ripped
03 [87a76225] (04/31) Accurately ripped
04 [6edf24fe] (04/31) Accurately ripped
05 [dca8bf42] (04/31) Accurately ripped
06 [45f7af87] (04/31) Accurately ripped
07 [141a291a] (04/31) Accurately ripped
08 [d36983fa] (04/31) Accurately ripped
09 [a02df136] (04/31) Accurately ripped
10 [34c6326a] (04/31) Accurately ripped
11 [bf5ef304] (04/31) Accurately ripped
12 [97beb5ee] (04/31) Accurately ripped
Track Peak [ CRC32 ] [W/O NULL] [ LOG ]
-- 98,8 [0D954F12] [F9D2E2DC]
01 98,8 [3C8D5FEE] [8C26919F] CRC32
02 98,8 [91F3B9B7] [3C3CF3F6] CRC32
03 98,8 [A8E7C56B] [29D2470A] CRC32
04 98,8 [5977395A] [DFF8B112] CRC32
05 98,8 [EA712DC6] [8C1DF353] CRC32
06 98,6 [8724BECE] [E604C8F4] CRC32
07 98,1 [3AA38476] [DF438097] CRC32
08 98,8 [C826AF2F] [8D6D478F] CRC32
09 98,8 [920F0102] [8C696BD7] CRC32
10 98,8 [68736957] [38CEDC66] CRC32
11 98,8 [FC134D4F] [76B75C1C] CRC32
12 98,8 [CE9CAAE3] [63704881] CRC32
21:46
218
Нет комментариев. Ваш будет первым!