Поиск

(Latin Jazz, Bossa Nova) [CD] Antonio Carlos Jobim - Antonio Carlos Jobim's Finest Hour - 2000, FLAC (image+.cue), lossless

(Latin Jazz, Bossa Nova) [CD] Antonio Carlos Jobim - Antonio Carlos Jobim's Finest Hour - 2000, FLAC (image+.cue), lossless
Antonio Carlos Jobim - Antonio Carlos Jobim's Finest Hour Жанр: Latin Jazz, Bossa Nova
Носитель: CD
Год издания: 2000
Издатель (лейбл): Verve
Номер по каталогу: 069 490 669-2
Аудиокодек: FLAC (*.flac)
Тип рипа: image+.cue
Битрейт аудио: lossless
Продолжительность: 63:32
Rip by JVA
Наличие сканов в содержимом раздачи: да
Треклист:
01. The Girl From Ipanema (5:26)
02. Desafinado (4:15)
03. Corcovado (4:17)
04. Agua De Beber (2:53)
05. O Morro Não Tem Vez (3:38)
06. Insensatez (2:56)
07. Samba De Uma Nota Só (2:17)
08. Meditation (3:18)
09. Chega De Saudade (4:21)
10. Wave (2:56)
11. The Girl From Ipanema (4:53)
12. Remember (4:03)
13. Um Rancho Nas Nuvens (4:06)
14. Águas de Março (3:35)
15. Inútil Paisagem (3:13)
16. Passarim (3:39)
17. Looks Like December (3:46)
 
 
Лог создания рипа
Exact Audio Copy V0.99 prebeta 5 from 4. May 2009
Отчёт EAC об извлечении, выполненном 16. сентября 2014, 11:35
Antonio Carlos Jobim / Antonio Carlos Jobim's Finest Hour
Дисковод: ATAPI iHAS124 E Adapter: 0 ID: 0
Режим чтения : Достоверность
Использование точного потока : Да
Отключение кэша аудио : Да
Использование указателей C2 : Нет
Коррекция смещения при чтении : 6
Способность читать области Lead-in и Lead-out : Нет
Заполнение пропущенных сэмплов тишиной : Да
Удаление блоков с тишиной в начале и конце : Нет
При вычислениях CRC использовались нулевые сэмплы : Да
Интерфейс : Встроенный Win32-интерфейс для Win NT/2000
Выходной формат : Пользовательский кодировщик
Выбранный битрейт : 768 kBit/s
Качество : Высокий
Добавление ID3-тэга : Нет
Утилита сжатия : C:\Program Files\Exact Audio Copy\Flac\flac.exe
Дополнительные параметры : -6 -V -T "ARTIST=%a" -T "TITLE=%t" -T "ALBUM=%g" -T "DATE=%y" -T "TRACKNUMBER=%n" -T "GENRE=%m" -T "COMMENT=%e" %s -o %d
TOC извлечённого CD
Трек | Старт | Длительность | Начальный сектор | Конечный сектор
---------------------------------------------------------------------
1 | 0:00.00 | 5:25.52 | 0 | 24426
2 | 5:25.52 | 4:14.43 | 24427 | 43519
3 | 9:40.20 | 4:16.50 | 43520 | 62769
4 | 13:56.70 | 2:53.20 | 62770 | 75764
5 | 16:50.15 | 3:37.57 | 75765 | 92096
6 | 20:27.72 | 2:55.73 | 92097 | 105294
7 | 23:23.70 | 2:17.30 | 105295 | 115599
8 | 25:41.25 | 3:18.10 | 115600 | 130459
9 | 28:59.35 | 4:21.00 | 130460 | 150034
10 | 33:20.35 | 2:56.22 | 150035 | 163256
11 | 36:16.57 | 4:53.05 | 163257 | 185236
12 | 41:09.62 | 4:02.70 | 185237 | 203456
13 | 45:12.57 | 4:06.35 | 203457 | 221941
14 | 49:19.17 | 3:34.65 | 221942 | 238056
15 | 52:54.07 | 3:13.13 | 238057 | 252544
16 | 56:07.20 | 3:38.67 | 252545 | 268961
17 | 59:46.12 | 3:45.68 | 268962 | 285904
Характеристики диапазона извлечения и сообщения об ошибках
Выбранный диапазон
Имя файла C:\EAC\Antonio Carlos Jobim - Antonio Carlos Jobim's Finest Hour\A.C.Jobim - Antonio Carlos Jobim's Finest Hour.wav
Пиковый уровень 100.0 %
Качество диапазона 100.0 %
CRC копии E7B93C13
Копирование... OK
Ошибок не произошло
AccurateRip: сводка
Трек 1 точное извлечение (доверие 2) [09368069]
Трек 2 точное извлечение (доверие 2) [E98643D5]
Трек 3 точное извлечение (доверие 2) [99899303]
Трек 4 точное извлечение (доверие 2) [81C2F148]
Трек 5 точное извлечение (доверие 2) [18A75FB5]
Трек 6 точное извлечение (доверие 2) [39B6E6BF]
Трек 7 точное извлечение (доверие 2) [7CA63DCF]
Трек 8 точное извлечение (доверие 2) [9F7AA934]
Трек 9 точное извлечение (доверие 2) [91D0245D]
Трек 10 точное извлечение (доверие 2) [2544DF74]
Трек 11 точное извлечение (доверие 2) [FC44B9A5]
Трек 12 точное извлечение (доверие 2) [A0AAB35A]
Трек 13 точное извлечение (доверие 2) [FB1D8887]
Трек 14 точное извлечение (доверие 2) [ADC559BC]
Трек 15 точное извлечение (доверие 2) [79FD3227]
Трек 16 точное извлечение (доверие 2) [986F52EB]
Трек 17 точное извлечение (доверие 2) [044FEB48]
Все треки извлечены точно
Конец отчёта
 
Содержание индексной карты (.CUE)
REM GENRE Jazz
REM DATE 2000
REM DISCID E80EE411
REM COMMENT "ExactAudioCopy v0.99pb5"
CATALOG 0606949066925
PERFORMER "Antonio Carlos Jobim"
TITLE "Antonio Carlos Jobim's Finest Hour"
FILE "A.C.Jobim - Antonio Carlos Jobim's Finest Hour.flac" WAVE
TRACK 01 AUDIO
TITLE "The Girl From Ipanema"
PERFORMER "Antonio Carlos Jobim"
ISRC USPR36301961
INDEX 01 00:00:00
TRACK 02 AUDIO
TITLE "Desafinado"
PERFORMER "Antonio Carlos Jobim"
ISRC USPR36301950
INDEX 00 05:22:72
INDEX 01 05:25:52
TRACK 03 AUDIO
TITLE "Corcovado"
PERFORMER "Antonio Carlos Jobim"
ISRC USPR36307074
INDEX 00 09:37:40
INDEX 01 09:40:20
TRACK 04 AUDIO
TITLE "Agua De Beber"
PERFORMER "Antonio Carlos Jobim"
ISRC USPR36301943
INDEX 00 13:54:15
INDEX 01 13:56:70
TRACK 05 AUDIO
TITLE "O Morro Não Tem Vez"
PERFORMER "Antonio Carlos Jobim"
ISRC USPR36307069
INDEX 00 16:47:35
INDEX 01 16:50:15
TRACK 06 AUDIO
TITLE "Insensatez"
PERFORMER "Antonio Carlos Jobim"
ISRC USPR36301945
INDEX 00 20:25:17
INDEX 01 20:27:72
TRACK 07 AUDIO
TITLE "Samba De Uma Nota Só"
PERFORMER "Antonio Carlos Jobim"
ISRC USPR36307066
INDEX 00 23:21:15
INDEX 01 23:23:70
TRACK 08 AUDIO
TITLE "Meditation"
PERFORMER "Antonio Carlos Jobim"
ISRC USPR36307067
INDEX 00 25:38:40
INDEX 01 25:41:25
TRACK 09 AUDIO
TITLE "Chega De Saudade"
PERFORMER "Antonio Carlos Jobim"
ISRC USPR36307065
INDEX 00 28:56:55
INDEX 01 28:59:35
TRACK 10 AUDIO
TITLE "Wave"
PERFORMER "Antonio Carlos Jobim"
ISRC USAM16704384
INDEX 00 33:17:55
INDEX 01 33:20:35
TRACK 11 AUDIO
TITLE "The Girl From Ipanema"
PERFORMER "Antonio Carlos Jobim"
ISRC USAM17000036
INDEX 00 36:14:02
INDEX 01 36:16:57
TRACK 12 AUDIO
TITLE "Remember"
PERFORMER "Antonio Carlos Jobim"
ISRC USAM17000040
INDEX 00 41:07:07
INDEX 01 41:09:62
TRACK 13 AUDIO
TITLE "Um Rancho Nas Nuvens"
PERFORMER "Antonio Carlos Jobim"
ISRC USMC17259546
INDEX 00 45:10:02
INDEX 01 45:12:57
TRACK 14 AUDIO
TITLE "Águas de Março"
PERFORMER "Antonio Carlos Jobim"
ISRC USPR37400056
INDEX 00 49:16:37
INDEX 01 49:19:17
TRACK 15 AUDIO
TITLE "Inútil Paisagem"
PERFORMER "Antonio Carlos Jobim"
ISRC USPR37400058
INDEX 00 52:51:27
INDEX 01 52:54:07
TRACK 16 AUDIO
TITLE "Passarim"
PERFORMER "Antonio Carlos Jobim"
ISRC USPR38605203
INDEX 00 56:04:40
INDEX 01 56:07:20
TRACK 17 AUDIO
TITLE "Looks Like December"
PERFORMER "Antonio Carlos Jobim"
ISRC USPR38605205
INDEX 00 59:43:32
INDEX 01 59:46:12
16:46
631
Нет комментариев. Ваш будет первым!