Поиск

(Latin Jazz, Bossa Nova) Azymuth - Brazilian Soul - 2004, FLAC (tracks+.cue), lossless

(Latin Jazz, Bossa Nova) Azymuth - Brazilian Soul - 2004, FLAC (tracks+.cue), lossless
Треклист:
Azymuth - Brazilian Soul
Жанр: Latin Jazz, Bossa Nova
Страна-производитель диска: UK
Год издания диска: 2004
Издатель (лейбл): Far Out Recordings
Номер по каталогу: FARO 091CD
Аудиокодек: FLAC (*.flac)
Тип рипа: tracks+.cue
Битрейт аудио: lossless
Продолжительность: 76:39
Источник (релизер): Demonoid
Наличие сканов в содержимом раздачи: да
Треклист:
01. Estatico (Feat. Marcio Lott) [6:38]
02. Biaozinho Carioca [5:37]
03. Demais (Feat. Emilio Santiago & Leo Gandleman) [8:18]
04. Sambafrica [4:02]
05. Retro Visor [3:51]
06. Depois de Carnival (Feta. Fabiola) [7:00]
07. Sao Pedro [5:35]
08. O Lance [5:19]
09. Sem Destino [6:15]
10. Ed Lincoln (Feat. Fabiola & Marcio Lott) [3:16]
11. Pra Ze (Feat. Sabrina Malheiros & Roberto Menescal) [5:13]
12. Te Querendo (Feat. Marcio Lott) [4:20]
13. Gubbio (Feat. Ze Carlos) [7:15]
14. Roda Piao [4:28]
 
Лог создания рипа
EAC extraction logfile from 21. June 2011, 20:21
Azymuth / Brazilian Soul
Used drive : HL-DT-ST BDDVDRW CH08LS10 Adapter: 1 ID: 0
Read mode : Secure
Utilize accurate stream : Yes
Defeat audio cache : Yes
Make use of C2 pointers : No
Read offset correction : 667
Overread into Lead-In and Lead-Out : No
Fill up missing offset samples with silence : Yes
Delete leading and trailing silent blocks : No
Null samples used in CRC calculations : Yes
Used interface : Native Win32 interface for Win NT & 2000
Gap handling : Appended to previous track
Used output format : Internal WAV Routines
Sample format : 44.100 Hz; 16 Bit; Stereo
TOC of the extracted CD
Track | Start | Length | Start sector | End sector
---------------------------------------------------------
1 | 0:00.00 | 4:26.63 | 0 | 20012
2 | 4:26.63 | 7:13.00 | 20013 | 52487
3 | 11:39.63 | 4:18.00 | 52488 | 71837
4 | 15:57.63 | 5:11.00 | 71838 | 95162
5 | 21:08.63 | 3:14.00 | 95163 | 109712
6 | 24:22.63 | 6:13.00 | 109713 | 137687
7 | 30:35.63 | 5:17.00 | 137688 | 161462
8 | 35:52.63 | 5:33.00 | 161463 | 186437
9 | 41:25.63 | 6:58.00 | 186438 | 217787
10 | 48:23.63 | 3:49.00 | 217788 | 234962
11 | 52:12.63 | 4:00.00 | 234963 | 252962
12 | 56:12.63 | 8:16.00 | 252963 | 290162
13 | 64:28.63 | 5:35.00 | 290163 | 315287
14 | 70:03.63 | 6:36.01 | 315288 | 344988
Track 1
Filename C:\Users\Rene\Music\Azymuth\2004 - Brazilian Soul\01. Estatico (feat. Marcio Lott).wav
Pre-gap length 0:00:02.00
Peak level 100.0 %
Track quality 100.0 %
Test CRC F1E3D597
Copy CRC F1E3D597
Accurately ripped (confidence 2) [30FBEF70]
Copy OK
Track 2
Filename C:\Users\Rene\Music\Azymuth\2004 - Brazilian Soul\02. Biaozinho Carioca.wav
Pre-gap length 0:00:01.89
Peak level 100.0 %
Track quality 100.0 %
Test CRC 12A7F989
Copy CRC 12A7F989
Accurately ripped (confidence 2) [6158AFE8]
Copy OK
Track 3
Filename C:\Users\Rene\Music\Azymuth\2004 - Brazilian Soul\03. Demais (feat. Emilio Santiago & Leo Gandleman).wav
Pre-gap length 0:00:02.08
Peak level 100.0 %
Track quality 100.0 %
Test CRC FA86C1F8
Copy CRC FA86C1F8
Accurately ripped (confidence 2) [B7FFBC72]
Copy OK
Track 4
Filename C:\Users\Rene\Music\Azymuth\2004 - Brazilian Soul\04. Sambafrica.wav
Pre-gap length 0:00:02.65
Peak level 100.0 %
Track quality 100.0 %
Test CRC 05F46382
Copy CRC 05F46382
Accurately ripped (confidence 2) [4F4CE107]
Copy OK
Track 5
Filename C:\Users\Rene\Music\Azymuth\2004 - Brazilian Soul\05. Retro Visor.wav
Pre-gap length 0:00:02.72
Peak level 100.0 %
Track quality 100.0 %
Test CRC CC8860EE
Copy CRC CC8860EE
Accurately ripped (confidence 2) [64E736E3]
Copy OK
Track 6
Filename C:\Users\Rene\Music\Azymuth\2004 - Brazilian Soul\06. Depois De Carnival (feat. Fabiola).wav
Pre-gap length 0:00:02.38
Peak level 99.5 %
Track quality 100.0 %
Test CRC BDD3A24C
Copy CRC BDD3A24C
Accurately ripped (confidence 2) [75D52439]
Copy OK
Track 7
Filename C:\Users\Rene\Music\Azymuth\2004 - Brazilian Soul\07. Sao Pedro.wav
Pre-gap length 0:00:02.52
Suspicious position 0:04:37
Peak level 100.0 %
Track quality 100.0 %
Test CRC E1E3E170
Copy CRC E1E3E170
Track not present in AccurateRip database
Copy OK
Track 8
Filename C:\Users\Rene\Music\Azymuth\2004 - Brazilian Soul\08. O Lance.wav
Pre-gap length 0:00:01.82
Peak level 100.0 %
Track quality 100.0 %
Test CRC E7964383
Copy CRC E7964383
Track not present in AccurateRip database
Copy OK
Track 9
Filename C:\Users\Rene\Music\Azymuth\2004 - Brazilian Soul\09. Sem Destino.wav
Pre-gap length 0:00:02.50
Peak level 100.0 %
Track quality 100.0 %
Test CRC 8D27D5E8
Copy CRC 8D27D5E8
Track not present in AccurateRip database
Copy OK
Track 10
Filename C:\Users\Rene\Music\Azymuth\2004 - Brazilian Soul\10. Ed Lincoln (feat. Fabiola & Marcia Lott).wav
Pre-gap length 0:00:02.34
Peak level 100.0 %
Track quality 100.0 %
Test CRC 4B3EBDD0
Copy CRC 4B3EBDD0
Accurately ripped (confidence 3) [97AD742D]
Copy OK
Track 11
Filename C:\Users\Rene\Music\Azymuth\2004 - Brazilian Soul\11. Pra Ze (feat. Sabrina Malheiros & Robert Menescal).wav
Pre-gap length 0:00:02.06
Peak level 100.0 %
Track quality 100.0 %
Test CRC 85450DA7
Copy CRC 85450DA7
Accurately ripped (confidence 3) [BFFF0861]
Copy OK
Track 12
Filename C:\Users\Rene\Music\Azymuth\2004 - Brazilian Soul\12. Te Querendo (feat. Marcia Lott).wav
Pre-gap length 0:00:02.64
Peak level 100.0 %
Track quality 100.0 %
Test CRC 0F4F90D5
Copy CRC 0F4F90D5
Accurately ripped (confidence 3) [DE91B1E1]
Copy OK
Track 13
Filename C:\Users\Rene\Music\Azymuth\2004 - Brazilian Soul\13. Gubbio (feat. Ze Carlos).wav
Pre-gap length 0:00:02.37
Peak level 100.0 %
Track quality 100.0 %
Test CRC F9C1D75C
Copy CRC F9C1D75C
Accurately ripped (confidence 3) [93ED5C9B]
Copy OK
Track 14
Filename C:\Users\Rene\Music\Azymuth\2004 - Brazilian Soul\14. Roda Piгo (Spiritual South remix).wav
Pre-gap length 0:00:02.12
Peak level 100.0 %
Track quality 100.0 %
Test CRC 0448861B
Copy CRC 0448861B
Accurately ripped (confidence 2) [C2AC21C8]
Copy OK
11 track(s) accurately ripped
3 track(s) not present in the AccurateRip database
Some tracks could not be verified as accurate
There were errors
End of status report
 
Содержание индексной карты (.CUE)
REM ACCURATERIPID 0026024e-01979575-c711f70e
REM DISCID C711F70E
REM COMMENT "ExactAudioCopy v0.99pb4"
REM DATE 2004
PERFORMER "Azymuth"
TITLE "Brazilian Soul"
CATALOG 0000000000000
FILE "01. Estatico (feat. Marcio Lott).flac" WAVE
TRACK 01 AUDIO
TITLE "Estatico (feat. Marcio Lott)"
PERFORMER "Azymuth"
INDEX 01 00:00:00
TRACK 02 AUDIO
TITLE "Biaozinho Carioca"
PERFORMER "Azymuth"
INDEX 00 04:24:71
FILE "02. Biaozinho Carioca.flac" WAVE
INDEX 01 00:00:00
TRACK 03 AUDIO
TITLE "Demais (feat. Emilio Santiago & Leo Gandleman)"
PERFORMER "Azymuth"
INDEX 00 07:10:69
FILE "03. Demais (feat. Emilio Santiago & Leo Gandleman).flac" WAVE
INDEX 01 00:00:00
TRACK 04 AUDIO
TITLE "Sambafrica"
PERFORMER "Azymuth"
INDEX 00 04:15:26
FILE "04. Sambafrica.flac" WAVE
INDEX 01 00:00:00
TRACK 05 AUDIO
TITLE "Retro Visor"
PERFORMER "Azymuth"
INDEX 00 05:08:21
FILE "05. Retro Visor.flac" WAVE
INDEX 01 00:00:00
TRACK 06 AUDIO
TITLE "Depois De Carnival (feat. Fabiola)"
PERFORMER "Azymuth"
INDEX 00 03:11:46
FILE "06. Depois De Carnival (feat. Fabiola).flac" WAVE
INDEX 01 00:00:00
TRACK 07 AUDIO
TITLE "Sao Pedro"
PERFORMER "Azymuth"
INDEX 00 06:10:36
FILE "07. Sao Pedro.flac" WAVE
INDEX 01 00:00:00
TRACK 08 AUDIO
TITLE "O Lance"
PERFORMER "Azymuth"
INDEX 00 05:15:13
FILE "08. O Lance.flac" WAVE
INDEX 01 00:00:00
TRACK 09 AUDIO
TITLE "Sem Destino"
PERFORMER "Azymuth"
INDEX 00 05:30:37
FILE "09. Sem Destino.flac" WAVE
INDEX 01 00:00:00
TRACK 10 AUDIO
TITLE "Ed Lincoln (feat. Fabiola & Marcia Lott)"
PERFORMER "Azymuth"
INDEX 00 06:55:49
FILE "10. Ed Lincoln (feat. Fabiola & Marcia Lott).flac" WAVE
INDEX 01 00:00:00
TRACK 11 AUDIO
TITLE "Pra Ze (feat. Sabrina Malheiros & Robert Menescal)"
PERFORMER "Azymuth"
INDEX 00 03:46:70
FILE "11. Pra Ze (feat. Sabrina Malheiros & Robert Menescal).flac" WAVE
INDEX 01 00:00:00
TRACK 12 AUDIO
TITLE "Te Querendo (feat. Marcia Lott)"
PERFORMER "Azymuth"
INDEX 00 03:57:27
FILE "12. Te Querendo (feat. Marcia Lott).flac" WAVE
INDEX 01 00:00:00
TRACK 13 AUDIO
TITLE "Gubbio (feat. Ze Carlos)"
PERFORMER "Azymuth"
INDEX 00 08:13:47
FILE "13. Gubbio (feat. Ze Carlos).flac" WAVE
INDEX 01 00:00:00
TRACK 14 AUDIO
TITLE "Roda Piгo (Spiritual South remix)"
PERFORMER "Azymuth"
INDEX 00 05:32:66
FILE "14. Roda Piгo (Spiritual South remix).flac" WAVE
INDEX 01 00:00:00
00:54
506
Нет комментариев. Ваш будет первым!